<?xml version="1.0" standalone="no"?>
<!DOCTYPE svg PUBLIC "-//W3C//DTD SVG 1.1//EN" "http://www.w3.org/Graphics/SVG/1.1/DTD/svg11.dtd" >
<svg xmlns="http://www.w3.org/2000/svg" xmlns:xlink="http://www.w3.org/1999/xlink" version="1.1">
<metadata>
Created by FontForge 20170731 at Tue Mar 17 18:20:55 2009
 By Aleksey,,,
Copyright (c) 2004-9 by Kris Sowersby. All rights reserved.
</metadata>
<defs>
<font id="National-Book" horiz-adv-x="501" >
  <font-face 
    font-family="National Book"
    font-weight="480"
    font-stretch="normal"
    units-per-em="1000"
    panose-1="2 0 5 3 0 0 0 2 0 4"
    ascent="800"
    descent="-200"
    x-height="462"
    cap-height="589"
    bbox="-100 -257 1180 956"
    underline-thickness="57"
    underline-position="-140"
    unicode-range="U+0020-F778"
  />
<missing-glyph horiz-adv-x="755" 
d="M83 0v589h589v-589h-589zM377 264l-221 -221h443zM156 546l221 -222l222 222h-443zM407 294l222 -221v443zM347 294l-221 222v-443z" />
    <glyph glyph-name="f_b" unicode="fb" horiz-adv-x="778" 
d="M375 0h-48v590q-41 23 -83 23q-86 0 -86 -97v-54h100v-61h-100v-401h-76v401h-67v61h67v54q0 83 47 121t113 38q57 0 99 -22l62 15v-295q16 49 56 74.5t91 25.5q86 0 134.5 -60t48.5 -171q0 -108 -53.5 -181t-144.5 -73q-109 0 -140 79zM403 268v-93q0 -64 36 -96.5
t83 -32.5q58 0 95.5 48.5t37.5 140.5q0 86 -32.5 130.5t-89.5 44.5q-56 0 -93 -38t-37 -104z" />
    <glyph glyph-name="f_f_b" unicode="ffb" horiz-adv-x="1023" 
d="M648 268v-93q0 -64 36 -96.5t83 -32.5q58 0 95.5 48.5t37.5 140.5q0 86 -32.5 130.5t-89.5 44.5q-56 0 -93 -38t-37 -104zM648 668v-295q16 49 56 74.5t91 25.5q86 0 134.5 -60t48.5 -171q0 -108 -53.5 -181t-144.5 -73q-109 0 -140 79l-20 -67h-48v590q-41 23 -83 23
q-86 0 -86 -97v-54h100v-61h-100v-401h-76v401h-169v-401h-76v401h-67v61h67v53q0 81 40.5 116t101.5 35q46 0 81 -18l-16 -66q-32 20 -67 20q-64 0 -64 -83v-57h169v54q0 83 47 121t113 38q57 0 99 -22z" />
    <glyph glyph-name="f_f_h" unicode="ffh" horiz-adv-x="998" 
d="M648 668v-294q32 99 138 99q63 0 102.5 -35.5t39.5 -106.5v-331h-76v313q0 44 -22.5 69t-64.5 25q-52 0 -84.5 -32t-32.5 -106v-269h-76v590q-41 23 -83 23q-86 0 -86 -97v-54h100v-61h-100v-401h-76v401h-169v-401h-76v401h-67v61h67v53q0 81 40.5 116t101.5 35
q46 0 81 -18l-16 -66q-32 20 -67 20q-64 0 -64 -83v-57h169v54q0 83 47 121t113 38q57 0 99 -22z" />
    <glyph glyph-name="f_f_j" unicode="ffj" horiz-adv-x="723" 
d="M403 401v-401h-76v401h-169v-401h-76v401h-67v61h67v53q0 81 40.5 116t101.5 35q46 0 81 -18l-16 -66q-32 20 -67 20q-64 0 -64 -83v-57h169v50q0 86 48 124.5t114 38.5q72 0 121 -33l-27 -63q-43 32 -94 32q-42 0 -64 -23.5t-22 -77.5v-48h245v-473q0 -109 -51 -152
t-155 -40v64q68 -5 99 23.5t31 92.5v424h-169z" />
    <glyph glyph-name="f_f_k" unicode="ffk" horiz-adv-x="948" 
d="M648 668v-396h21l165 190h94l-194 -215l209 -247h-96l-172 212h-27v-212h-76v590q-41 23 -83 23q-86 0 -86 -97v-54h100v-61h-100v-401h-76v401h-169v-401h-76v401h-67v61h67v53q0 81 40.5 116t101.5 35q46 0 81 -18l-16 -66q-32 20 -67 20q-64 0 -64 -83v-57h169v54
q0 83 47 121t113 38q57 0 99 -22z" />
    <glyph glyph-name="f_h" unicode="fh" horiz-adv-x="753" 
d="M403 668v-294q32 99 138 99q63 0 102.5 -35.5t39.5 -106.5v-331h-76v313q0 44 -22.5 69t-64.5 25q-52 0 -84.5 -32t-32.5 -106v-269h-76v590q-41 23 -83 23q-86 0 -86 -97v-54h100v-61h-100v-401h-76v401h-67v61h67v54q0 83 47 121t113 38q57 0 99 -22z" />
    <glyph glyph-name="f_j" unicode="fj" horiz-adv-x="478" 
d="M327 -23v424h-169v-401h-76v401h-67v61h67v50q0 86 48 124.5t114 38.5q72 0 121 -33l-27 -63q-43 32 -94 32q-42 0 -64 -23.5t-22 -77.5v-48h245v-473q0 -109 -51 -152t-155 -40v64q68 -5 99 23.5t31 92.5z" />
    <glyph glyph-name="f_k" unicode="fk" horiz-adv-x="703" 
d="M403 668v-396h21l165 190h94l-194 -215l209 -247h-96l-172 212h-27v-212h-76v590q-41 23 -83 23q-86 0 -86 -97v-54h100v-61h-100v-401h-76v401h-67v61h67v54q0 83 47 121t113 38q57 0 99 -22z" />
    <glyph glyph-name="ff" unicode="ff" horiz-adv-x="517" 
d="M327 401h-169v-401h-76v401h-67v61h67v53q0 81 40.5 116t101.5 35q46 0 81 -18l-16 -66q-32 20 -67 20q-64 0 -64 -83v-57h169v58q0 81 43 118t107 37q45 0 90 -18l-16 -66q-37 20 -72 20q-76 0 -76 -95v-54h118v-61h-118v-401h-76v401z" />
    <glyph glyph-name="ffi" unicode="ffi" horiz-adv-x="723" 
d="M327 462v50q0 86 48 124.5t114 38.5q72 0 121 -33l-27 -63q-43 32 -94 32q-42 0 -64 -23.5t-22 -77.5v-48h245v-462h-76v401h-169v-401h-76v401h-169v-401h-76v401h-67v61h67v53q0 81 40.5 116t101.5 35q46 0 81 -18l-16 -66q-32 20 -67 20q-64 0 -64 -83v-57h169z" />
    <glyph glyph-name="ffl" unicode="ffl" horiz-adv-x="754" 
d="M327 462v54q0 83 47 121t113 38q57 0 99 -22l62 15v-569q0 -42 40 -42q14 0 31 5v-63q-28 -6 -49 -6q-43 0 -70.5 24t-27.5 70v503q-41 23 -83 23q-86 0 -86 -97v-54h100v-61h-100v-401h-76v401h-169v-401h-76v401h-67v61h67v53q0 81 40.5 116t101.5 35q46 0 81 -18
l-16 -66q-32 20 -67 20q-64 0 -64 -83v-57h169z" />
    <glyph glyph-name="fi" unicode="fi" horiz-adv-x="478" 
d="M82 401h-67v61h67v50q0 86 48 124.5t114 38.5q72 0 121 -33l-27 -63q-43 32 -94 32q-42 0 -64 -23.5t-22 -77.5v-48h245v-462h-76v401h-169v-401h-76v401z" />
    <glyph glyph-name="fl" unicode="fl" horiz-adv-x="509" 
d="M474 62v-63q-28 -6 -49 -6q-43 0 -70.5 24t-27.5 70v503q-41 23 -83 23q-86 0 -86 -97v-54h100v-61h-100v-401h-76v401h-67v61h67v54q0 83 47 121t113 38q57 0 99 -22l62 15v-569q0 -42 40 -42q14 0 31 5z" />
    <glyph glyph-name=".notdef" horiz-adv-x="755" 
d="M83 0v589h589v-589h-589zM377 264l-221 -221h443zM156 546l221 -222l222 222h-443zM407 294l222 -221v443zM347 294l-221 222v-443z" />
    <glyph glyph-name=".null" horiz-adv-x="0" 
 />
    <glyph glyph-name="nonmarkingreturn" horiz-adv-x="333" 
 />
    <glyph glyph-name="space" unicode=" " horiz-adv-x="221" 
 />
    <glyph glyph-name="exclam" unicode="!" horiz-adv-x="224" 
d="M62 589h100l-24 -423h-52zM55 51q0 24 16.5 40.5t40.5 16.5t40.5 -16.5t16.5 -40.5t-16.5 -40.5t-40.5 -16.5t-40.5 16.5t-16.5 40.5z" />
    <glyph glyph-name="quotedbl" unicode="&#x22;" horiz-adv-x="326" 
d="M60 412v256h87l-39 -256h-48zM199 412v256h87l-39 -256h-48z" />
    <glyph glyph-name="numbersign" unicode="#" horiz-adv-x="603" 
d="M543 151h-156l-45 -151h-60l45 151h-109l-45 -151h-60l45 151h-118v59h135l27 91h-142v59h160l36 121h61l-37 -121h109l36 121h61l-37 -121h114v-59h-131l-28 -91h139v-59zM263 301l-28 -91h109l27 91h-108z" />
    <glyph glyph-name="dollar" unicode="$" horiz-adv-x="440" 
d="M206 -106v94q-153 5 -171 128l77 10q7 -73 94 -81v164l-33 7q-119 25 -119 137q0 65 42.5 99t109.5 40v82h50v-82q130 -10 143 -127l-78 -8q-5 60 -65 74v-160l13 -2q131 -28 131 -144q0 -62 -38.5 -95t-105.5 -40v-96h-50zM128 360q0 -32 17 -50.5t56 -26.5l5 -1v152
q-36 -4 -57 -23.5t-21 -50.5zM326 119q0 32 -15.5 50.5t-54.5 28.5v-151q70 13 70 72z" />
    <glyph glyph-name="percent" unicode="%" horiz-adv-x="856" 
d="M173 229q-66 0 -102 50t-36 134q0 83 37.5 133.5t100.5 50.5t100.5 -50.5t37.5 -133.5q0 -84 -36 -134t-102 -50zM173 542q-36 0 -55.5 -35.5t-19.5 -94.5q0 -58 19.5 -95t55.5 -37t55.5 37t19.5 95q0 59 -19.5 94.5t-55.5 35.5zM248 0l306 590h56l-305 -590h-57zM683 -7
q-66 0 -102 50t-36 134q0 83 37.5 133.5t100.5 50.5t100.5 -50.5t37.5 -133.5q0 -84 -36 -134t-102 -50zM683 306q-36 0 -55.5 -35.5t-19.5 -94.5q0 -58 19.5 -95t55.5 -37t55.5 37t19.5 95q0 59 -19.5 94.5t-55.5 35.5z" />
    <glyph glyph-name="ampersand" unicode="&#x26;" horiz-adv-x="543" 
d="M533 38l-53 -50l-75 80q-75 -80 -194 -80q-85 0 -135.5 39.5t-50.5 117.5q0 123 133 176l-23 25q-56 61 -56 122q0 60 41.5 96.5t108.5 36.5q70 0 111.5 -36.5t41.5 -95.5q0 -55 -26 -93.5t-88 -66.5l132 -138q21 41 23 118l70 -16q-12 -98 -45 -149zM100 148
q0 -46 32 -73.5t79 -27.5q94 0 153 64l-165 169q-51 -20 -75 -50.5t-24 -81.5zM229 545q-37 0 -58.5 -20t-21.5 -54q0 -39 46 -88l32 -34q46 20 65 47t19 69q0 38 -21 59t-61 21z" />
    <glyph glyph-name="quotesingle" unicode="'" horiz-adv-x="187" 
d="M60 412v256h87l-39 -256h-48z" />
    <glyph glyph-name="parenleft" unicode="(" horiz-adv-x="329" 
d="M145 233q0 -129 44 -227t135 -208h-86q-80 95 -124 198.5t-44 236.5t44 236.5t124 198.5h86q-91 -111 -135 -208t-44 -227z" />
    <glyph glyph-name="parenright" unicode=")" horiz-adv-x="329" 
d="M184 233q0 130 -44 227t-135 208h86q80 -94 124 -198t44 -237t-44 -237t-124 -198h-86q91 110 135 208t44 227z" />
    <glyph glyph-name="asterisk" unicode="*" horiz-adv-x="353" 
d="M210 589l-11 -99l88 43l21 -62l-99 -17l69 -76l-53 -38l-49 88l-48 -89l-52 40l69 75l-100 17l22 61l88 -42l-12 99h67z" />
    <glyph glyph-name="plus" unicode="+" horiz-adv-x="498" 
d="M45 271h179v174h46v-174h183v-46h-183v-188h-46v188h-179v46z" />
    <glyph glyph-name="comma" unicode="," horiz-adv-x="281" 
d="M201 27q0 -128 -141 -138v39q77 12 77 73q-29 -6 -47.5 9t-18.5 42q0 26 16.5 41t44.5 15t48.5 -22t20.5 -59z" />
    <glyph glyph-name="hyphen" unicode="-" horiz-adv-x="364" 
d="M70 224v64h224v-64h-224z" />
    <glyph glyph-name="period" unicode="." horiz-adv-x="284" 
d="M80 56q0 26 18 44t44 18t44 -18t18 -44t-18 -44t-44 -18t-44 18t-18 44z" />
    <glyph glyph-name="slash" unicode="/" horiz-adv-x="385" 
d="M10 -203l274 872h71l-276 -872h-69z" />
    <glyph glyph-name="zero" unicode="0" horiz-adv-x="585" 
d="M293 -12q-113 0 -178 71t-65 180q0 110 65 182t178 72t177.5 -72t64.5 -182q0 -109 -64.5 -180t-177.5 -71zM293 428q-79 0 -122.5 -52.5t-43.5 -136.5q0 -85 43 -136t123 -51q79 0 122 51t43 136q0 84 -43 136.5t-122 52.5z" />
    <glyph glyph-name="one" unicode="1" horiz-adv-x="347" 
d="M237 0h-76v406l-141 -27v64l217 46v-489z" />
    <glyph glyph-name="two" unicode="2" horiz-adv-x="436" 
d="M396 63v-63h-361v63q261 122 261 272q0 47 -26 71.5t-69 24.5q-40 0 -66 -26.5t-30 -77.5l-70 14q10 81 58.5 116.5t114.5 35.5q72 0 119 -37.5t47 -116.5q0 -94 -73.5 -168t-174.5 -104v-4h270z" />
    <glyph glyph-name="three" unicode="3" horiz-adv-x="438" 
d="M211 194v-5q74 -6 120.5 -51t46.5 -111q0 -75 -54.5 -120t-131.5 -45q-84 0 -134 37.5t-58 102.5l73 13q18 -95 118 -95q52 0 81.5 29.5t29.5 79.5q0 111 -172 129v61q93 14 127.5 43.5t34.5 84.5q0 39 -27.5 61.5t-67.5 22.5q-82 0 -100 -86l-71 16q13 60 57.5 96
t116.5 36q71 0 119.5 -37t48.5 -110q0 -61 -42 -103t-115 -49z" />
    <glyph glyph-name="four" unicode="4" horiz-adv-x="496" 
d="M298 -131v185h-283v50l281 377h77v-366h98v-61h-98v-185h-75zM176 115h122v162l4 120h-4q-19 -38 -66 -103l-83 -113q-15 -20 -28.5 -36.5t-19.5 -22.5l-6 -6v-4q17 3 81 3z" />
    <glyph glyph-name="five" unicode="5" horiz-adv-x="430" 
d="M71 160l12 321h285v-66h-221l-8 -211q34 31 91 31q73 0 119 -48t46 -136q0 -91 -54.5 -140.5t-144.5 -49.5q-79 0 -126.5 38t-54.5 102l66 15q17 -99 119 -99q55 0 89.5 32.5t34.5 98.5q0 61 -32.5 96.5t-88.5 35.5q-37 0 -73 -20h-59z" />
    <glyph glyph-name="six" unicode="6" horiz-adv-x="513" 
d="M458 485l-68 -28q-28 82 -106 82q-77 0 -119.5 -75.5t-43.5 -216.5h3q13 61 55 94t100 33q88 0 138.5 -54t50.5 -137t-54 -139t-150 -56q-97 0 -153 74t-56 216q0 157 67 240t167 83q124 0 169 -116zM145 178q0 -58 35.5 -93.5t88.5 -35.5q54 0 90 35.5t36 93.5
q0 60 -35.5 96t-90.5 36q-53 0 -88.5 -36t-35.5 -96z" />
    <glyph glyph-name="seven" unicode="7" horiz-adv-x="448" 
d="M327 415h-229v-75h-73v141h383v-51l-226 -561h-75z" />
    <glyph glyph-name="eight" unicode="8" horiz-adv-x="494" 
d="M247 -12q-88 0 -142.5 43t-54.5 118q0 108 110 148v5q-99 33 -99 140q0 72 52 115.5t134 43.5t134 -43.5t52 -115.5q0 -107 -99 -140v-5q110 -40 110 -148q0 -75 -54.5 -118t-142.5 -43zM247 546q-52 0 -81.5 -28t-29.5 -75q0 -56 30 -84t81 -28t81 28t30 84
q0 47 -29.5 75t-81.5 28zM247 271q-53 0 -88.5 -30t-35.5 -83t33.5 -84t90.5 -31t90.5 31t33.5 84t-35.5 83t-88.5 30z" />
    <glyph glyph-name="nine" unicode="9" horiz-adv-x="507" 
d="M25 -23l67 27q30 -85 120 -85q173 0 173 321h-4q-10 -67 -52 -101.5t-102 -34.5q-88 0 -139.5 54.5t-51.5 133.5q0 84 52.5 142.5t148.5 58.5q101 0 158 -72t57 -213q0 -164 -62.5 -255t-179.5 -91q-141 0 -185 115zM361 300q0 60 -36 96t-89 36q-56 0 -92.5 -36
t-36.5 -96q0 -62 36.5 -99t92.5 -37q53 0 89 37.5t36 98.5z" />
    <glyph glyph-name="colon" unicode=":" horiz-adv-x="284" 
d="M80 56q0 26 18 44t44 18t44 -18t18 -44t-18 -44t-44 -18t-44 18t-18 44zM80 400q0 26 18 44t44 18t44 -18t18 -44t-18 -44t-44 -18t-44 18t-18 44z" />
    <glyph glyph-name="semicolon" unicode=";" horiz-adv-x="281" 
d="M201 27q0 -128 -141 -138v39q77 12 77 73q-29 -6 -47.5 9t-18.5 42q0 26 16.5 41t44.5 15t48.5 -22t20.5 -59zM71 400q0 26 18 44t44 18t44 -18t18 -44t-18 -44t-44 -18t-44 18t-18 44z" />
    <glyph glyph-name="less" unicode="&#x3c;" horiz-adv-x="379" 
d="M327 423l-213 -176l214 -179l-30 -35l-253 214l253 212z" />
    <glyph glyph-name="equal" unicode="=" horiz-adv-x="498" 
d="M453 160h-408v46h408v-46zM453 286h-408v46h408v-46z" />
    <glyph glyph-name="greater" unicode="&#x3e;" horiz-adv-x="379" 
d="M259 247l-212 176l29 36l252 -212l-252 -214l-31 35z" />
    <glyph glyph-name="question" unicode="?" horiz-adv-x="379" 
d="M65 444l-65 24q13 60 59 96.5t120 36.5q82 0 131 -48t49 -124q0 -84 -51.5 -132.5t-119.5 -50.5v-89h-70v134h31q62 0 97.5 32.5t35.5 99.5q0 58 -29 86.5t-79 28.5q-92 0 -109 -94zM96 51q0 24 16.5 40.5t40.5 16.5t40.5 -16.5t16.5 -40.5t-16.5 -40.5t-40.5 -16.5
t-40.5 16.5t-16.5 40.5z" />
    <glyph glyph-name="at" unicode="@" horiz-adv-x="883" 
d="M533 156v92q0 50 -31.5 76.5t-70.5 26.5q-111 0 -111 -158q0 -71 29.5 -109t80.5 -38q38 0 70.5 29t32.5 81zM602 399v-306q0 -53 45 -53q60 0 88 59t28 159q0 69 -26 124t-70 88t-99 50.5t-118 17.5q-65 0 -124 -20.5t-107 -60.5t-76 -105.5t-28 -149.5
q0 -89 29.5 -156.5t81 -107.5t115.5 -60t138 -20q104 0 180 29l14 -57q-90 -30 -195 -30q-67 0 -127 12t-117 41.5t-98 74.5t-66 115t-25 158q0 175 111 285t298 110q92 0 165.5 -27t119 -73.5t69 -106.5t23.5 -128q0 -273 -190 -273q-99 0 -108 80q-30 -80 -128 -80
q-65 0 -111.5 53.5t-46.5 150.5q0 102 47 159t132 57q39 0 69 -18t39 -43l24 52h44z" />
    <glyph glyph-name="A" unicode="A" horiz-adv-x="554" 
d="M460 0l-61 174h-247l-61 -174h-81l215 589h106l213 -589h-84zM228 392l-54 -154h202l-53 153q-14 40 -25.5 78t-15.5 55l-4 18h-4q-14 -59 -46 -150z" />
    <glyph glyph-name="B" unicode="B" horiz-adv-x="513" 
d="M338 304v-3q56 -4 93 -38.5t37 -96.5q0 -79 -51.5 -122.5t-156.5 -43.5h-175v589h176q184 0 184 -150q0 -57 -29.5 -92t-77.5 -43zM163 327h94q51 0 80 25t29 75q0 97 -115 97h-88v-197zM163 263v-198h108q119 0 119 105q0 93 -120 93h-107z" />
    <glyph glyph-name="C" unicode="C" horiz-adv-x="556" 
d="M475 152l55 -46q-40 -62 -94 -90t-137 -28q-116 0 -185 80t-69 224q0 145 74.5 227t196.5 82q156 0 215 -139l-71 -35q-19 53 -58.5 80.5t-91.5 27.5q-86 0 -134.5 -64.5t-48.5 -177.5q0 -112 45 -174t131 -62q59 0 98.5 22t73.5 73z" />
    <glyph glyph-name="D" unicode="D" horiz-adv-x="585" 
d="M163 65h85q95 0 152 57.5t57 175.5q0 121 -55.5 173.5t-144.5 52.5h-94v-459zM256 0h-171v589h172q132 0 207.5 -69.5t75.5 -218.5q0 -154 -79.5 -227.5t-204.5 -73.5z" />
    <glyph glyph-name="E" unicode="E" horiz-adv-x="487" 
d="M437 68v-68h-352v589h352v-68h-274v-193h243v-68h-243v-192h274z" />
    <glyph glyph-name="F" unicode="F" horiz-adv-x="449" 
d="M163 0h-78v589h334v-68h-256v-193h225v-68h-225v-260z" />
    <glyph glyph-name="G" unicode="G" horiz-adv-x="604" 
d="M311 300h228v-300h-69l-9 79q-16 -42 -62.5 -66.5t-99.5 -24.5q-116 0 -185 80t-69 224q0 145 74.5 227t196.5 82q160 0 215 -139l-71 -35q-19 53 -58.5 80.5t-91.5 27.5q-86 0 -134.5 -64.5t-48.5 -177.5q0 -110 45 -175t131 -65q66 0 112 31.5t46 93.5v52h-150v70z" />
    <glyph glyph-name="H" unicode="H" horiz-adv-x="624" 
d="M163 0h-78v589h78v-256h298v256h78v-589h-78v265h-298v-265z" />
    <glyph glyph-name="I" unicode="I" horiz-adv-x="248" 
d="M85 589h78v-589h-78v589z" />
    <glyph glyph-name="J" unicode="J" horiz-adv-x="426" 
d="M283 589h78v-418q0 -96 -50.5 -139.5t-128.5 -43.5q-127 0 -182 116l63 41q25 -52 51 -71.5t70 -19.5q57 0 78 35t21 102v398z" />
    <glyph glyph-name="K" unicode="K" horiz-adv-x="522" 
d="M502 0h-96l-194 265h-49v-265h-78v589h78v-256h52l181 256h92l-211 -286z" />
    <glyph glyph-name="L" unicode="L" horiz-adv-x="457" 
d="M85 589h78v-521h274v-68h-352v589z" />
    <glyph glyph-name="M" unicode="M" horiz-adv-x="712" 
d="M386 147h-60l-120 227q-16 30 -27 56t-14 37l-3 11h-4q5 -37 5 -108v-370h-78v589h97l149 -297q9 -18 15.5 -34.5t8.5 -23.5l2 -8h4q6 26 26 66l149 297h91v-589h-78v370l5 108h-4q-8 -36 -44 -104z" />
    <glyph glyph-name="N" unicode="N" horiz-adv-x="642" 
d="M168 589l240 -355q16 -24 34 -54.5t28 -49.5l10 -18h4q-5 67 -5 141v336h78v-589h-81l-243 355q-16 24 -34 54.5t-28 48.5l-10 19h-4q6 -67 6 -141v-336h-78v589h83z" />
    <glyph glyph-name="O" unicode="O" horiz-adv-x="612" 
d="M306 -12q-120 0 -190.5 80.5t-70.5 225.5q0 146 70.5 226.5t190.5 80.5t190.5 -80.5t70.5 -226.5q0 -145 -70.5 -225.5t-190.5 -80.5zM306 533q-87 0 -133 -63t-46 -176t46 -176t133 -63t133 63t46 176t-46 176t-133 63z" />
    <glyph glyph-name="P" unicode="P" horiz-adv-x="488" 
d="M163 524v-235h90q67 0 95 31t28 89q0 56 -32 85.5t-93 29.5h-88zM163 0h-78v589h167q206 0 206 -175q0 -88 -50 -138.5t-148 -50.5h-97v-225z" />
    <glyph glyph-name="Q" unicode="Q" horiz-adv-x="612" 
d="M509 -71l-26 -72q-89 -2 -147.5 35.5t-80.5 99.5q-98 16 -154 94.5t-56 207.5q0 146 70.5 226.5t190.5 80.5t190.5 -80.5t70.5 -226.5q0 -134 -60.5 -213.5t-165.5 -90.5q62 -69 168 -61zM306 533q-87 0 -133 -63t-46 -176t46 -176t133 -63t133 63t46 176t-46 176
t-133 63z" />
    <glyph glyph-name="R" unicode="R" horiz-adv-x="539" 
d="M502 0h-85q-17 21 -24 53l-25 107q-13 53 -41 71.5t-79 18.5h-85v-250h-78v589h195q196 0 196 -164q0 -67 -40 -105.5t-98 -40.5v-2q43 -5 67.5 -27.5t36.5 -70.5l30 -118q9 -36 30 -61zM163 524v-210h115q116 0 116 106q0 104 -116 104h-115z" />
    <glyph glyph-name="S" unicode="S" horiz-adv-x="465" 
d="M30 144l74 13q17 -109 127 -109q53 0 84 24t31 69q0 43 -27 68.5t-103 54.5q-26 10 -39.5 15.5t-36.5 17t-36 23.5t-27 29.5t-20 40t-6 49.5q0 83 53 123t128 40q83 0 134.5 -37.5t57.5 -118.5l-76 -12q-4 51 -35 79t-80 28q-47 0 -76 -25.5t-29 -69.5q0 -24 8 -41
t30 -31.5t40.5 -22.5t59.5 -24q38 -15 60 -26t48 -31.5t38.5 -49.5t12.5 -68q0 -80 -55.5 -122t-141.5 -42q-176 0 -198 156z" />
    <glyph glyph-name="T" unicode="T" horiz-adv-x="449" 
d="M263 0h-78v521h-175v68h429v-68h-176v-521z" />
    <glyph glyph-name="U" unicode="U" horiz-adv-x="573" 
d="M430 589h78v-397q0 -55 -19 -96t-51.5 -63.5t-70.5 -33.5t-81 -11t-81 11t-70.5 33.5t-51 63.5t-18.5 96v397h78v-378q0 -159 143 -159q144 0 144 156v381z" />
    <glyph glyph-name="V" unicode="V" horiz-adv-x="514" 
d="M94 589l124 -391q13 -41 22.5 -77.5t13.5 -52.5l3 -17h4q8 54 37 146l125 392h81l-195 -589h-106l-193 589h84z" />
    <glyph glyph-name="W" unicode="W" horiz-adv-x="810" 
d="M453 589l99 -384q11 -42 19 -81t11 -58l3 -18h4q8 63 32 156l101 385h78l-160 -589h-110l-97 366q-11 42 -17.5 80.5t-7.5 56.5l-1 18h-4q-4 -61 -28 -155l-95 -366h-110l-160 589h83l99 -382q11 -41 19 -81t11 -59l3 -19h4q7 65 32 158l104 383h88z" />
    <glyph glyph-name="X" unicode="X" horiz-adv-x="513" 
d="M417 0l-118 177q-17 25 -27.5 43t-12.5 24l-2 5h-4q-4 -15 -42 -73l-115 -176h-86l203 298l-193 291h90l103 -161q18 -28 29 -47t12 -24l2 -5h3q3 13 42 75l102 162h85l-189 -282l204 -307h-86z" />
    <glyph glyph-name="Y" unicode="Y" horiz-adv-x="464" 
d="M98 589l101 -202q14 -28 24 -51t13 -32l2 -9h4q7 28 36 91l94 203h82l-177 -357v-232h-78v232l-189 357h88z" />
    <glyph glyph-name="Z" unicode="Z" horiz-adv-x="462" 
d="M439 538l-263 -396q-14 -22 -28 -40t-20 -26l-7 -7v-4q25 3 88 3h233v-68h-422v41l265 406q14 22 28 40t21 25l6 8v4q-25 -3 -88 -3h-218v68h405v-51z" />
    <glyph glyph-name="bracketleft" unicode="[" horiz-adv-x="314" 
d="M154 612v-758h125v-57h-194v872h194v-57h-125z" />
    <glyph glyph-name="backslash" unicode="\" horiz-adv-x="385" 
d="M100 669l275 -872h-70l-275 872h70z" />
    <glyph glyph-name="bracketright" unicode="]" horiz-adv-x="314" 
d="M160 -146v758h-125v57h194v-872h-194v57h125z" />
    <glyph glyph-name="asciicircum" unicode="^" horiz-adv-x="499" 
d="M389 321l-90 175q-20 38 -31.5 67.5t-13.5 40.5l-2 10h-4q-2 -32 -47 -117l-93 -176h-78l190 347h60l189 -347h-80z" />
    <glyph glyph-name="underscore" unicode="_" horiz-adv-x="481" 
d="M50 -83v61h381v-61h-381z" />
    <glyph glyph-name="grave" unicode="`" horiz-adv-x="344" 
d="M260 530h-65l-115 143h105z" />
    <glyph glyph-name="a" unicode="a" horiz-adv-x="472" 
d="M311 137v74q-100 2 -147.5 -20t-47.5 -70q0 -33 21 -53.5t60 -20.5q43 0 78.5 25t35.5 65zM387 334v-235q0 -43 35 -43q16 0 25 4v-61q-22 -6 -41 -6q-81 0 -90 75q-33 -80 -137 -80q-62 0 -100.5 33.5t-38.5 90.5q0 166 271 153v62q0 84 -93 84q-87 0 -93 -77l-70 10
q5 68 54.5 98.5t117.5 30.5q69 0 114.5 -32.5t45.5 -106.5z" />
    <glyph glyph-name="b" unicode="b" horiz-adv-x="526" 
d="M151 268v-93q0 -64 36 -96.5t83 -32.5q58 0 95.5 48.5t37.5 140.5q0 86 -32.5 130.5t-89.5 44.5q-56 0 -93 -38t-37 -104zM143 67l-20 -67h-48v668h76v-295q16 49 56 74.5t91 25.5q86 0 134.5 -60t48.5 -171q0 -108 -53.5 -181t-144.5 -73q-109 0 -140 79z" />
    <glyph glyph-name="c" unicode="c" horiz-adv-x="454" 
d="M355 128l64 -14q-20 -126 -176 -126q-90 0 -144 63t-54 177q0 115 55.5 180t150.5 65q72 0 115 -36.5t47 -105.5l-71 -11q-14 90 -96 90q-61 0 -94.5 -50t-33.5 -133q0 -78 36.5 -128t96.5 -50q82 0 104 79z" />
    <glyph glyph-name="d" unicode="d" horiz-adv-x="526" 
d="M375 181v108q0 60 -37.5 92t-84.5 32q-60 0 -96 -45t-36 -143q0 -85 35 -130.5t96 -45.5q46 0 84.5 35t38.5 97zM374 399v269h77v-668h-67l-9 80q-37 -92 -148 -92q-76 0 -129 62t-53 174q0 118 54 183.5t153 65.5q43 0 78 -22t44 -52z" />
    <glyph glyph-name="e" unicode="e" horiz-adv-x="475" 
d="M251 48q86 0 108 80l67 -15q-23 -125 -181 -125q-92 0 -146 63t-54 177q0 115 55.5 180t150.5 65q85 0 132 -53.5t47 -141.5q0 -42 -9 -64h-303q4 -75 38.5 -120.5t94.5 -45.5zM120 275h235q1 8 1 21q0 49 -30.5 82.5t-79.5 33.5q-53 0 -86 -35t-40 -102z" />
    <glyph glyph-name="f" unicode="f" horiz-adv-x="272" 
d="M82 401h-67v61h67v58q0 81 43 118t107 37q45 0 90 -18l-16 -66q-37 20 -72 20q-76 0 -76 -95v-54h118v-61h-118v-401h-76v401z" />
    <glyph glyph-name="g" unicode="g" horiz-adv-x="479" 
d="M226 473q85 0 134 -40q27 12 36 70l68 -24q-5 -33 -25 -54.5t-50 -27.5q22 -35 22 -88q0 -77 -52 -118.5t-131 -41.5q-40 0 -61 8q-35 -18 -35 -51q0 -42 54 -42h107q159 0 159 -126q0 -42 -21 -72.5t-57.5 -46.5t-77 -23t-88.5 -7q-198 0 -198 123q0 46 31.5 76t86.5 34
q-29 4 -45 22.5t-16 46.5q0 61 66 77q-88 40 -88 141q0 76 49.5 120t131.5 44zM83 -83q0 -73 131 -73q165 0 165 84q0 69 -86 69h-95q-115 0 -115 -80zM119 310q0 -48 28.5 -76.5t78.5 -28.5q51 0 80.5 26.5t29.5 78.5t-29.5 79.5t-80.5 26.5t-79 -28t-28 -78z" />
    <glyph glyph-name="h" unicode="h" 
d="M151 668v-294q32 99 138 99q63 0 102.5 -35.5t39.5 -106.5v-331h-76v313q0 44 -22.5 69t-64.5 25q-52 0 -84.5 -32t-32.5 -106v-269h-76v668h76z" />
    <glyph glyph-name="i" unicode="i" horiz-adv-x="226" 
d="M59 612q0 23 15.5 39t37.5 16q23 0 39 -16t16 -39q0 -22 -16.5 -38t-38.5 -16t-37.5 16t-15.5 38zM75 462h76v-462h-76v462z" />
    <glyph glyph-name="j" unicode="j" horiz-adv-x="226" 
d="M75 462h76v-473q0 -109 -51 -152t-155 -40v64q68 -5 99 23.5t31 92.5v485zM60 612q0 23 15.5 39t37.5 16q23 0 39 -16t16 -39q0 -22 -16.5 -38t-38.5 -16t-37.5 16t-15.5 38z" />
    <glyph glyph-name="k" unicode="k" horiz-adv-x="451" 
d="M237 247l209 -247h-96l-172 212h-27v-212h-76v668h76v-396h21l165 190h94z" />
    <glyph glyph-name="l" unicode="l" horiz-adv-x="252" 
d="M217 62v-63q-28 -6 -49 -6q-43 0 -70.5 24t-27.5 70v581h76v-569q0 -42 40 -42q14 0 31 5z" />
    <glyph glyph-name="m" unicode="m" horiz-adv-x="765" 
d="M413 371q16 53 55 77.5t89 24.5q62 0 100 -34.5t38 -102.5v-336h-76v313q0 45 -21 69.5t-61 24.5q-46 0 -80 -35.5t-34 -102.5v-269h-76v313q0 45 -21 69.5t-61 24.5q-46 0 -80 -35.5t-34 -102.5v-269h-76v462h57l9 -89q17 51 56 75.5t88 24.5q111 0 128 -102z" />
    <glyph glyph-name="n" unicode="n" 
d="M132 462l9 -89q36 100 148 100q63 0 102.5 -35.5t39.5 -106.5v-331h-76v312q0 45 -22.5 70t-64.5 25q-52 0 -84.5 -32t-32.5 -106v-269h-76v462h57z" />
    <glyph glyph-name="o" unicode="o" horiz-adv-x="502" 
d="M251 -12q-95 0 -150.5 64.5t-55.5 181.5q0 116 55 177.5t151 61.5t151 -61.5t55 -177.5q0 -117 -55.5 -181.5t-150.5 -64.5zM251 411q-131 0 -131 -177q0 -186 131 -186t131 186q0 177 -131 177z" />
    <glyph glyph-name="p" unicode="p" horiz-adv-x="526" 
d="M151 268v-93q0 -64 36 -96.5t83 -32.5q58 0 95.5 48.5t37.5 140.5q0 86 -32.5 130.5t-89.5 44.5q-56 0 -93 -38t-37 -104zM151 61v-264h-76v665h60l9 -89q19 52 62.5 76t91.5 24q86 0 134.5 -60t48.5 -171q0 -108 -53.5 -181t-146.5 -73q-99 0 -130 73z" />
    <glyph glyph-name="q" unicode="q" horiz-adv-x="526" 
d="M375 183v106q0 60 -37.5 92t-84.5 32q-60 0 -96 -45t-36 -143q0 -85 35 -130.5t96 -45.5q46 0 84.5 35t38.5 99zM375 402l26 60h50v-665h-75v283q-38 -92 -149 -92q-76 0 -129 62t-53 174q0 118 54 183.5t152 65.5q43 0 78.5 -21.5t45.5 -49.5z" />
    <glyph glyph-name="r" unicode="r" horiz-adv-x="343" 
d="M323 472l-4 -86q-13 3 -37 3q-54 0 -92.5 -41.5t-38.5 -106.5v-241h-76v462h63l9 -124q14 64 59.5 100.5t116.5 33.5z" />
    <glyph glyph-name="s" unicode="s" horiz-adv-x="411" 
d="M30 103l70 17q9 -78 104 -78q46 0 73.5 17.5t27.5 52.5q0 32 -16.5 50.5t-59.5 29.5l-68 16q-62 15 -88.5 46.5t-26.5 82.5q0 70 48 103t120 33q147 0 161 -123l-75 -8q-4 73 -91 73q-43 0 -67 -18.5t-24 -51.5q0 -29 14.5 -46t54.5 -26l63 -16q63 -16 94.5 -46.5
t31.5 -89.5q0 -69 -47.5 -101t-126.5 -32q-78 0 -120.5 27t-51.5 88z" />
    <glyph glyph-name="t" unicode="t" horiz-adv-x="321" 
d="M291 77l15 -63q-41 -26 -102 -26t-94 32t-33 92v289h-67v61h67v98l77 10v-108h137v-61h-138v-275q0 -73 62 -73q39 0 76 24z" />
    <glyph glyph-name="u" unicode="u" 
d="M361 0l-9 83q-33 -95 -142 -95q-140 0 -140 154v320h76v-313q0 -55 21.5 -80t67.5 -25q43 0 79 37t36 100v281h76v-462h-65z" />
    <glyph glyph-name="v" unicode="v" horiz-adv-x="426" 
d="M171 0l-161 462h84l85 -268q13 -41 22 -77.5t12 -52.5l3 -17h4q7 54 35 146l81 269h80l-154 -462h-91z" />
    <glyph glyph-name="w" unicode="w" horiz-adv-x="655" 
d="M369 462l71 -259q12 -41 19.5 -78.5t9.5 -54.5l2 -17h4q2 56 26 150l67 259h77l-127 -462h-91l-67 237q-12 41 -19.5 77t-9.5 52l-2 16h-4q-5 -52 -30 -145l-64 -237h-91l-130 462h79l68 -258q11 -41 19 -79t10 -55l2 -17h4q3 59 28 151l71 258h78z" />
    <glyph glyph-name="x" unicode="x" horiz-adv-x="413" 
d="M319 0l-75 115q-17 26 -26 43.5t-10 22.5v5h-4q0 -12 -39 -72l-75 -114h-80l155 233l-147 229h86l65 -107q16 -27 26 -45t11 -22l2 -5h4q0 12 36 71l66 108h82l-147 -227l154 -235h-84z" />
    <glyph glyph-name="y" unicode="y" horiz-adv-x="426" 
d="M93 462l85 -268q13 -40 22.5 -76.5t12.5 -52.5l3 -16h4q9 53 36 144l81 269h79l-166 -499q-32 -96 -75 -133.5t-105 -37.5q-33 0 -63 11l5 63q29 -13 60 -13q39 0 63 26t46 94l-171 489h83z" />
    <glyph glyph-name="z" unicode="z" horiz-adv-x="383" 
d="M353 410l-186 -272q-15 -22 -28.5 -40t-20.5 -26l-6 -7v-4q25 3 88 3h163v-64h-343v41l188 281q15 22 28.5 40l19.5 26l7 7v4q-25 -3 -88 -3h-144v66h322v-52z" />
    <glyph glyph-name="braceleft" unicode="{" horiz-adv-x="384" 
d="M146 238v-4q38 -5 58 -26.5t20 -71.5v-204q0 -42 13.5 -62t46.5 -20q31 0 61 15l14 -56q-44 -15 -88 -15q-64 0 -90 34t-26 100v202q0 47 -18.5 62t-50.5 15h-41v58h41q32 0 50.5 15t18.5 62v202q0 66 26 100t90 34q44 0 88 -15l-14 -56q-30 15 -61 15q-33 0 -46.5 -20
t-13.5 -62v-204q0 -52 -19.5 -72t-58.5 -26z" />
    <glyph glyph-name="bar" unicode="|" horiz-adv-x="267" 
d="M167 -203h-67v872h67v-872z" />
    <glyph glyph-name="braceright" unicode="}" horiz-adv-x="384" 
d="M238 234v4q-39 6 -58.5 26t-19.5 72v204q0 42 -13.5 62t-46.5 20q-31 0 -61 -15l-14 56q44 15 88 15q64 0 90 -34t26 -100v-202q0 -47 18.5 -62t50.5 -15h41v-58h-41q-32 0 -50.5 -15t-18.5 -62v-202q0 -66 -26 -100t-90 -34q-44 0 -88 15l14 56q30 -15 61 -15
q33 0 46.5 20t13.5 62v204q0 50 20 71.5t58 26.5z" />
    <glyph glyph-name="asciitilde" unicode="~" horiz-adv-x="460" 
d="M298 199q-27 0 -71 24q-4 2 -14 8t-13.5 7.5t-10 4.5t-12 4t-11.5 1q-36 0 -30 -47h-48q-17 46 3.5 81t65.5 35q36 0 83 -28q36 -22 53 -22q32 0 29 50h51q15 -51 -5 -84.5t-70 -33.5z" />
    <glyph glyph-name="nbspace" unicode="&#xa0;" horiz-adv-x="153" 
 />
    <glyph glyph-name="exclamdown" unicode="&#xa1;" horiz-adv-x="224" 
d="M162 -126h-100l24 423h52zM55 412q0 24 16.5 40.5t40.5 16.5t40.5 -16.5t16.5 -40.5t-16.5 -40.5t-40.5 -16.5t-40.5 16.5t-16.5 40.5z" />
    <glyph glyph-name="cent" unicode="&#xa2;" horiz-adv-x="512" 
d="M245 -106v96q-87 8 -141 71.5t-54 177.5q0 108 53 174t142 78v83h50v-81q65 -3 106 -31t66 -84l-70 -39q-30 81 -102 90v-378q71 6 114 77l57 -43q-56 -88 -171 -96v-95h-50zM128 243q0 -78 30.5 -127.5t86.5 -61.5v372q-56 -11 -86.5 -59.5t-30.5 -123.5z" />
    <glyph glyph-name="sterling" unicode="&#xa3;" horiz-adv-x="505" 
d="M340 199h-141q9 -38 9 -61q0 -56 -46 -73h181q63 0 73 49l59 -30q-21 -84 -124 -84h-289v68h29q20 0 32.5 17.5t12.5 46.5q0 26 -15 67h-86v50h69q-12 41 -12 87q0 79 52 118t125 39q136 0 156 -128l-71 -12q-7 40 -27 59.5t-65 19.5q-43 0 -68.5 -24t-25.5 -72
q0 -37 16 -87h156v-50z" />
    <glyph glyph-name="currency" unicode="&#xa4;" horiz-adv-x="452" 
d="M319 420l70 70l33 -33l-74 -74q21 -39 21 -92q0 -51 -18 -90l71 -70l-33 -33l-65 65q-38 -35 -98 -35t-98 35l-65 -65l-33 33l71 71q-18 36 -18 89q0 55 20 93l-73 73l33 33l69 -71q37 31 94 31t93 -30zM226 403q-76 0 -76 -111q0 -118 76 -118t76 118q0 111 -76 111z
" />
    <glyph glyph-name="yen" unicode="&#xa5;" horiz-adv-x="484" 
d="M429 142h-147v-142h-77v142h-150v50h137l-27 50h-110v50h83l-103 189h88l82 -162q15 -28 24.5 -50.5t11.5 -30.5l2 -9h4q6 27 37 89l83 163h82l-101 -189h81v-50h-108l-27 -50h135v-50z" />
    <glyph glyph-name="brokenbar" unicode="&#xa6;" horiz-adv-x="267" 
d="M167 278h-67v391h67v-391zM167 -203h-67v391h67v-391z" />
    <glyph glyph-name="section" unicode="&#xa7;" horiz-adv-x="428" 
d="M40 13l79 9q4 -38 33.5 -56t72.5 -18q40 0 66 16t26 49q0 58 -76 80l-73 21q-110 32 -110 124q0 81 85 108q-85 35 -85 119q0 70 47 103t113 33q78 0 120 -29t49 -94l-77 -8q-2 35 -26 53.5t-64 18.5q-90 0 -90 -70q0 -26 15 -43.5t54 -30.5l65 -22q61 -20 92.5 -47
t31.5 -81q0 -42 -22.5 -70t-64.5 -35q37 -12 62 -46.5t25 -74.5q0 -69 -47.5 -101t-126.5 -32q-74 0 -119.5 31.5t-54.5 92.5zM317 236q0 36 -31.5 54t-99.5 38q-56 -22 -56 -78q0 -39 27 -56t102 -36q22 8 40 28.5t18 49.5z" />
    <glyph glyph-name="dieresis" unicode="&#xa8;" horiz-adv-x="458" 
d="M80 595q0 22 16 38t38 16t38 -15.5t16 -38.5q0 -22 -16 -38t-38 -16t-38 16t-16 38zM269 594q0 22 16 38t38 16q23 0 38.5 -16t15.5 -38t-16 -38t-38 -16t-38 16t-16 38z" />
    <glyph glyph-name="copyright" unicode="&#xa9;" horiz-adv-x="703" 
d="M458 215l47 -39q-52 -74 -154 -74q-79 0 -129.5 49.5t-50.5 143.5q0 90 52.5 141.5t134.5 51.5q106 0 148 -87l-60 -34q-23 64 -90 64q-54 0 -85.5 -35.5t-31.5 -100.5q0 -64 31 -100t88 -36q33 0 55.5 13t44.5 43zM45 294q0 132 89 219.5t217 87.5t217.5 -87.5
t89.5 -219.5t-89.5 -219t-217.5 -87t-217 87t-89 219zM76 294q0 -120 80 -198.5t196 -78.5t196 78.5t80 198.5t-80 199t-196 79t-196 -79t-80 -199z" />
    <glyph glyph-name="ordfeminine" unicode="&#xaa;" horiz-adv-x="352" 
d="M212 380v45q-59 1 -85 -12t-26 -43q0 -45 47 -45q25 0 44.5 14.5t19.5 40.5zM278 508v-150q0 -24 20 -24q14 0 24 8v-50q-15 -10 -44 -10q-56 0 -63 47q-20 -50 -88 -50q-41 0 -66.5 22t-25.5 60q0 110 177 103v28q0 59 -53 59q-23 0 -37.5 -12t-16.5 -32l-60 7
q3 45 37 66t81 21q50 0 82.5 -22t32.5 -71z" />
    <glyph glyph-name="guillemotleft" unicode="&#xab;" horiz-adv-x="463" 
d="M276 235v-4q16 -7 56 -55l100 -120l-42 -36l-181 213l181 213l43 -43l-101 -117q-18 -21 -32 -33.5t-19 -14.5zM97 235v-4q16 -7 56 -55l100 -120l-42 -36l-181 213l181 213l43 -43l-101 -117q-18 -21 -32 -33.5t-19 -14.5z" />
    <glyph glyph-name="logicalnot" unicode="&#xac;" horiz-adv-x="498" 
d="M401 269h-356v46h408v-188h-52v142z" />
    <glyph glyph-name="uni00AD" unicode="&#xad;" horiz-adv-x="364" 
d="M70 224v64h224v-64h-224z" />
    <glyph glyph-name="registered" unicode="&#xae;" horiz-adv-x="703" 
d="M506 120h-69q-12 15 -17 40l-12 48q-13 52 -83 52h-33v-140h-64v361h137q60 0 94.5 -27.5t34.5 -82.5q0 -43 -27 -66.5t-75 -25.5q33 -5 52.5 -17t27.5 -42l13 -54q6 -28 21 -46zM292 428v-119h53q48 0 67 15t19 44q0 28 -19.5 44t-55.5 16h-64zM45 294q0 132 89 219.5
t217 87.5t217.5 -87.5t89.5 -219.5t-89.5 -219t-217.5 -87t-217 87t-89 219zM76 294q0 -120 80 -198.5t196 -78.5t196 78.5t80 198.5t-80 199t-196 79t-196 -79t-80 -199z" />
    <glyph glyph-name="macron" unicode="&#xaf;" horiz-adv-x="411" 
d="M331 564h-251v61h251v-61z" />
    <glyph glyph-name="degree" unicode="&#xb0;" horiz-adv-x="261" 
d="M40 510q0 38 25.5 64.5t64.5 26.5t65 -26.5t26 -64.5t-26 -64t-65 -26t-64.5 26t-25.5 64zM83 510q0 -22 13 -36.5t34 -14.5t34.5 14.5t13.5 36.5t-13.5 37t-34.5 15t-34 -15t-13 -37z" />
    <glyph glyph-name="plusminus" unicode="&#xb1;" horiz-adv-x="498" 
d="M45 333h179v138h46v-138h183v-46h-183v-152h-46v152h-179v46zM453 49h-408v46h408v-46z" />
    <glyph glyph-name="twosuperior" unicode="&#xb2;" horiz-adv-x="301" 
d="M281 286v-50h-261v48q98 68 138 109.5t40 90.5q0 57 -58 57q-32 0 -47.5 -20t-16.5 -50l-52 25q0 40 34.5 70.5t92.5 30.5q48 0 80.5 -27.5t32.5 -79.5q0 -30 -13 -58t-27.5 -46.5t-42.5 -40.5t-41.5 -30.5t-41.5 -24.5v-4h183z" />
    <glyph glyph-name="threesuperior" unicode="&#xb3;" horiz-adv-x="314" 
d="M177 421v-3q97 -9 97 -92q0 -45 -36.5 -71t-93.5 -26q-58 0 -92.5 22.5t-41.5 58.5l56 22q6 -23 28 -39t50 -16q66 0 66 54q0 31 -25 47t-85 17v44q100 4 100 58q0 23 -15 36.5t-42 13.5q-51 0 -63 -48l-55 20q10 35 41.5 56.5t80.5 21.5t82 -23t33 -69q0 -75 -85 -84z
" />
    <glyph glyph-name="acute" unicode="&#xb4;" horiz-adv-x="344" 
d="M149 530h-65l75 143h105z" />
    <glyph glyph-name="mu" unicode="&#xb5;" horiz-adv-x="506" 
d="M361 0l-9 87q-34 -97 -134 -99q-51 0 -72 23v-214h-76v665h76v-307q0 -105 82 -105q41 0 82 32t41 95v285h75v-462h-65z" />
    <glyph glyph-name="mu" unicode="&#x3bc;" horiz-adv-x="506" 
d="M361 0l-9 87q-34 -97 -134 -99q-51 0 -72 23v-214h-76v665h76v-307q0 -105 82 -105q41 0 82 32t41 95v285h75v-462h-65z" />
    <glyph glyph-name="paragraph" unicode="&#xb6;" horiz-adv-x="510" 
d="M386 529v-553q0 -139 -135 -139q-55 0 -104 27l24 70q34 -30 77 -30q59 0 59 59v211h-48q-229 0 -229 201q0 214 272 214h163v-60h-79z" />
    <glyph glyph-name="periodcentered" unicode="&#xb7;" horiz-adv-x="284" 
d="M80 266q0 26 18 44t44 18t44 -18t18 -44t-18 -44t-44 -18t-44 18t-18 44z" />
    <glyph glyph-name="cedilla" unicode="&#xb8;" horiz-adv-x="346" 
d="M266 -126q0 -42 -28.5 -63.5t-72.5 -21.5q-57 0 -85 38l23 48q25 -37 62 -37q38 0 38 36q0 44 -70 44l6 87h42l-3 -47q88 -8 88 -84z" />
    <glyph glyph-name="onesuperior" unicode="&#xb9;" horiz-adv-x="293" 
d="M283 236h-253v50h100v241l-110 -12v51l174 24v-304h89v-50z" />
    <glyph glyph-name="ordmasculine" unicode="&#xba;" horiz-adv-x="376" 
d="M188 279q-66 0 -104.5 42.5t-38.5 120.5q0 77 38.5 118t104.5 41t104.5 -41t38.5 -118q0 -78 -38.5 -120.5t-104.5 -42.5zM188 554q-76 0 -76 -111q0 -118 76 -118t76 118q0 111 -76 111z" />
    <glyph glyph-name="guillemotright" unicode="&#xbb;" horiz-adv-x="463" 
d="M187 231v4q-15 4 -56 51l-101 117l43 43l181 -213l-181 -213l-42 36l100 120q18 21 32 35t19 17zM366 231v4q-15 4 -56 51l-101 117l43 43l181 -213l-181 -213l-42 36l100 120q18 21 32 35t19 17z" />
    <glyph glyph-name="onequarter" unicode="&#xbc;" horiz-adv-x="862" 
d="M304 236h-253v50h100v241l-110 -12v51l174 24v-304h89v-50zM250 0l306 590h56l-305 -590h-57zM707 0v92h-180v49l176 212h67v-213h60v-48h-60v-92h-63zM709 139v91l5 70h-4q-11 -26 -38 -62l-45 -53q-11 -13 -23 -24.5t-18 -16.5l-7 -5v-4q13 4 56 4h74z" />
    <glyph glyph-name="onehalf" unicode="&#xbd;" horiz-adv-x="862" 
d="M304 236h-253v50h100v241l-110 -12v51l174 24v-304h89v-50zM250 0l306 590h56l-305 -590h-57zM793 50v-50h-261v48q98 68 138 109.5t40 90.5q0 57 -58 57q-32 0 -47.5 -20t-16.5 -50l-52 25q0 40 34.5 70.5t92.5 30.5q48 0 80.5 -27.5t32.5 -79.5q0 -30 -13 -58
t-27.5 -46.5t-42.5 -40.5t-41.5 -30.5t-41.5 -24.5v-4h183z" />
    <glyph glyph-name="threequarters" unicode="&#xbe;" horiz-adv-x="862" 
d="M209 421v-3q97 -9 97 -92q0 -45 -36.5 -71t-93.5 -26q-58 0 -92.5 22.5t-41.5 58.5l56 22q6 -23 28 -39t50 -16q66 0 66 54q0 31 -25 47t-85 17v44q100 4 100 58q0 23 -15 36.5t-42 13.5q-51 0 -63 -48l-55 20q10 35 41.5 56.5t80.5 21.5t82 -23t33 -69q0 -75 -85 -84z
M250 0l306 590h56l-305 -590h-57zM707 0v92h-180v49l176 212h67v-213h60v-48h-60v-92h-63zM709 139v91l5 70h-4q-11 -26 -38 -62l-45 -53q-11 -13 -23 -24.5t-18 -16.5l-7 -5v-4q13 4 56 4h74z" />
    <glyph glyph-name="questiondown" unicode="&#xbf;" horiz-adv-x="379" 
d="M314 18l65 -24q-13 -60 -59 -96.5t-120 -36.5q-82 0 -131 48t-49 124q0 84 51.5 132.5t119.5 50.5v89h70v-134h-31q-62 0 -97.5 -32.5t-35.5 -99.5q0 -58 29 -86.5t79 -28.5q92 0 109 94zM283 411q0 -24 -16.5 -40.5t-40.5 -16.5t-40.5 16.5t-16.5 40.5t16.5 40.5
t40.5 16.5t40.5 -16.5t16.5 -40.5z" />
    <glyph glyph-name="Agrave" unicode="&#xc0;" horiz-adv-x="554" 
d="M460 0l-61 174h-247l-61 -174h-81l215 589h106l213 -589h-84zM228 392l-54 -154h202l-53 153q-14 40 -25.5 78t-15.5 55l-4 18h-4q-14 -59 -46 -150zM315 655h-69l-97 116h104z" />
    <glyph glyph-name="Aacute" unicode="&#xc1;" horiz-adv-x="554" 
d="M460 0l-61 174h-247l-61 -174h-81l215 589h106l213 -589h-84zM228 392l-54 -154h202l-53 153q-14 40 -25.5 78t-15.5 55l-4 18h-4q-14 -59 -46 -150zM310 655h-69l62 116h104z" />
    <glyph glyph-name="Acircumflex" unicode="&#xc2;" horiz-adv-x="554" 
d="M460 0l-61 174h-247l-61 -174h-81l215 589h106l213 -589h-84zM228 392l-54 -154h202l-53 153q-14 40 -25.5 78t-15.5 55l-4 18h-4q-14 -59 -46 -150zM252 779h46l121 -124h-87l-32 34q-8 9 -14 18t-8 13l-2 4h-2q-5 -14 -24 -35l-32 -34h-87z" />
    <glyph glyph-name="Atilde" unicode="&#xc3;" horiz-adv-x="554" 
d="M460 0l-61 174h-247l-61 -174h-81l215 589h106l213 -589h-84zM228 392l-54 -154h202l-53 153q-14 40 -25.5 78t-15.5 55l-4 18h-4q-14 -59 -46 -150zM345 655q-27 0 -71 24q-4 2 -14 8t-13.5 7.5t-10 4.5t-12 4t-11.5 1q-36 0 -30 -47h-48q-17 46 3.5 81t65.5 35
q36 0 83 -28q36 -22 53 -22q32 0 29 50h51q15 -51 -5 -84.5t-70 -33.5z" />
    <glyph glyph-name="Adieresis" unicode="&#xc4;" horiz-adv-x="554" 
d="M460 0l-61 174h-247l-61 -174h-81l215 589h106l213 -589h-84zM228 392l-54 -154h202l-53 153q-14 40 -25.5 78t-15.5 55l-4 18h-4q-14 -59 -46 -150zM128 710q0 22 16 38t38 16t38 -16t16 -38t-16 -38t-38 -16t-38 16t-16 38zM317 709q0 22 16 38t38 16q23 0 38.5 -15.5
t15.5 -38.5q0 -22 -16 -38t-38 -16t-38 16t-16 38z" />
    <glyph glyph-name="Aring" unicode="&#xc5;" horiz-adv-x="554" 
d="M460 0l-61 174h-247l-61 -174h-81l215 589h106l213 -589h-84zM228 392l-54 -154h202l-53 153q-14 40 -25.5 78t-15.5 55l-4 18h-4q-14 -59 -46 -150zM276 637q-46 0 -72.5 27t-26.5 69q0 39 27.5 66t71.5 27t71.5 -27t27.5 -66q0 -42 -26.5 -69t-72.5 -27zM276 790
q-26 0 -41.5 -16.5t-15.5 -42.5q0 -25 15 -40t42 -15t42 15t15 40q0 26 -15.5 42.5t-41.5 16.5z" />
    <glyph glyph-name="AE" unicode="&#xc6;" horiz-adv-x="818" 
d="M768 0h-352v174h-217l-106 -174h-83l364 589h394v-68h-274v-193h244v-68h-244v-192h274v-68zM418 532l-181 -294h179v148q0 44 1.5 80.5t2.5 51.5l2 14h-4z" />
    <glyph glyph-name="Ccedilla" unicode="&#xc7;" horiz-adv-x="556" 
d="M406 -126q0 -42 -28.5 -63.5t-72.5 -21.5q-57 0 -85 38l23 48q25 -37 62 -37q38 0 38 36q0 44 -70 44l5 71q-107 8 -170 86.5t-63 216.5q0 145 74.5 227t196.5 82q156 0 215 -139l-71 -35q-19 53 -58.5 80.5t-91.5 27.5q-86 0 -134.5 -64.5t-48.5 -177.5q0 -112 45 -174
t131 -62q59 0 98.5 22t73.5 73l55 -46q-38 -58 -87.5 -86t-122.5 -31l-2 -31q88 -8 88 -84z" />
    <glyph glyph-name="Egrave" unicode="&#xc8;" horiz-adv-x="487" 
d="M437 68v-68h-352v589h352v-68h-274v-193h243v-68h-243v-192h274zM299 655h-69l-97 116h104z" />
    <glyph glyph-name="Eacute" unicode="&#xc9;" horiz-adv-x="487" 
d="M437 68v-68h-352v589h352v-68h-274v-193h243v-68h-243v-192h274zM294 655h-69l62 116h104z" />
    <glyph glyph-name="Ecircumflex" unicode="&#xca;" horiz-adv-x="487" 
d="M437 68v-68h-352v589h352v-68h-274v-193h243v-68h-243v-192h274zM238 779h46l121 -124h-87l-32 34q-8 9 -14 18t-8 13l-2 4h-2q-5 -14 -24 -35l-32 -34h-87z" />
    <glyph glyph-name="Edieresis" unicode="&#xcb;" horiz-adv-x="487" 
d="M437 68v-68h-352v589h352v-68h-274v-193h243v-68h-243v-192h274zM112 710q0 22 16 38t38 16t38 -16t16 -38t-16 -38t-38 -16t-38 16t-16 38zM301 709q0 22 16 38t38 16q23 0 38.5 -15.5t15.5 -38.5q0 -22 -16 -38t-38 -16t-38 16t-16 38z" />
    <glyph glyph-name="Igrave" unicode="&#xcc;" horiz-adv-x="248" 
d="M85 589h78v-589h-78v589zM162 655h-69l-97 116h104z" />
    <glyph glyph-name="Iacute" unicode="&#xcd;" horiz-adv-x="248" 
d="M85 589h78v-589h-78v589zM157 655h-69l62 116h104z" />
    <glyph glyph-name="Icircumflex" unicode="&#xce;" horiz-adv-x="248" 
d="M85 589h78v-589h-78v589zM101 779h46l121 -124h-87l-32 34q-8 9 -14 18t-8 13l-2 4h-2q-5 -14 -24 -35l-32 -34h-87z" />
    <glyph glyph-name="Idieresis" unicode="&#xcf;" horiz-adv-x="248" 
d="M85 589h78v-589h-78v589zM-25 710q0 22 16 38t38 16q23 0 38.5 -16t15.5 -38t-16 -38t-38 -16t-38 16t-16 38zM164 709q0 22 16 38t38 16t38 -15.5t16 -38.5q0 -22 -16 -38t-38 -16t-38 16t-16 38z" />
    <glyph glyph-name="Eth" unicode="&#xd0;" horiz-adv-x="585" 
d="M256 0h-171v260h-57v68h57v261h172q132 0 207.5 -69.5t75.5 -218.5q0 -154 -79.5 -227.5t-204.5 -73.5zM163 65h85q95 0 152 57.5t57 175.5q0 121 -55.5 173.5t-144.5 52.5h-94v-196h116v-68h-116v-195z" />
    <glyph glyph-name="Ntilde" unicode="&#xd1;" horiz-adv-x="642" 
d="M168 589l240 -355q16 -24 34 -54.5t28 -49.5l10 -18h4q-5 67 -5 141v336h78v-589h-81l-243 355q-16 24 -34 54.5t-28 48.5l-10 19h-4q6 -67 6 -141v-336h-78v589h83zM389 655q-27 0 -71 24q-4 2 -14 8t-13.5 7.5t-10 4.5t-12 4t-11.5 1q-36 0 -30 -47h-48q-17 46 3.5 81
t65.5 35q36 0 83 -28q36 -22 53 -22q32 0 29 50h51q15 -51 -5 -84.5t-70 -33.5z" />
    <glyph glyph-name="Ograve" unicode="&#xd2;" horiz-adv-x="612" 
d="M306 -12q-120 0 -190.5 80.5t-70.5 225.5q0 146 70.5 226.5t190.5 80.5t190.5 -80.5t70.5 -226.5q0 -145 -70.5 -225.5t-190.5 -80.5zM306 533q-87 0 -133 -63t-46 -176t46 -176t133 -63t133 63t46 176t-46 176t-133 63zM344 655h-69l-97 116h104z" />
    <glyph glyph-name="Oacute" unicode="&#xd3;" horiz-adv-x="612" 
d="M306 -12q-120 0 -190.5 80.5t-70.5 225.5q0 146 70.5 226.5t190.5 80.5t190.5 -80.5t70.5 -226.5q0 -145 -70.5 -225.5t-190.5 -80.5zM306 533q-87 0 -133 -63t-46 -176t46 -176t133 -63t133 63t46 176t-46 176t-133 63zM339 655h-69l62 116h104z" />
    <glyph glyph-name="Ocircumflex" unicode="&#xd4;" horiz-adv-x="612" 
d="M306 -12q-120 0 -190.5 80.5t-70.5 225.5q0 146 70.5 226.5t190.5 80.5t190.5 -80.5t70.5 -226.5q0 -145 -70.5 -225.5t-190.5 -80.5zM306 533q-87 0 -133 -63t-46 -176t46 -176t133 -63t133 63t46 176t-46 176t-133 63zM283 779h46l121 -124h-87l-32 34q-8 9 -14 18
t-8 13l-2 4h-2q-5 -14 -24 -35l-32 -34h-87z" />
    <glyph glyph-name="Otilde" unicode="&#xd5;" horiz-adv-x="612" 
d="M306 -12q-120 0 -190.5 80.5t-70.5 225.5q0 146 70.5 226.5t190.5 80.5t190.5 -80.5t70.5 -226.5q0 -145 -70.5 -225.5t-190.5 -80.5zM306 533q-87 0 -133 -63t-46 -176t46 -176t133 -63t133 63t46 176t-46 176t-133 63zM374 655q-27 0 -71 24q-4 2 -14 8t-13.5 7.5
t-10 4.5t-12 4t-11.5 1q-36 0 -30 -47h-48q-17 46 3.5 81t65.5 35q36 0 83 -28q36 -22 53 -22q32 0 29 50h51q15 -51 -5 -84.5t-70 -33.5z" />
    <glyph glyph-name="Odieresis" unicode="&#xd6;" horiz-adv-x="612" 
d="M306 -12q-120 0 -190.5 80.5t-70.5 225.5q0 146 70.5 226.5t190.5 80.5t190.5 -80.5t70.5 -226.5q0 -145 -70.5 -225.5t-190.5 -80.5zM306 533q-87 0 -133 -63t-46 -176t46 -176t133 -63t133 63t46 176t-46 176t-133 63zM157 710q0 22 16 38t38 16q23 0 38.5 -16
t15.5 -38t-16 -38t-38 -16t-38 16t-16 38zM346 709q0 22 16 38t38 16t38 -15.5t16 -38.5q0 -22 -16 -38t-38 -16t-38 16t-16 38z" />
    <glyph glyph-name="multiply" unicode="&#xd7;" horiz-adv-x="440" 
d="M45 110l139 139l-135 135l32 33l136 -135l142 141l32 -32l-142 -142l146 -145l-32 -33l-146 145l-140 -139z" />
    <glyph glyph-name="Oslash" unicode="&#xd8;" horiz-adv-x="612" 
d="M69 -14l-42 40l66 73q-48 77 -48 195q0 146 70.5 226.5t190.5 80.5q110 0 177 -67l57 63l45 -41l-64 -71q46 -75 46 -191q0 -145 -70.5 -225.5t-190.5 -80.5q-109 0 -176 65zM306 533q-86 0 -131 -62.5t-45 -176.5q0 -76 20 -131l282 314q-45 56 -126 56zM482 294
q0 76 -19 127l-282 -312q45 -54 125 -54q86 0 131 62.5t45 176.5z" />
    <glyph glyph-name="Ugrave" unicode="&#xd9;" horiz-adv-x="573" 
d="M430 589h78v-397q0 -55 -19 -96t-51.5 -63.5t-70.5 -33.5t-81 -11t-81 11t-70.5 33.5t-51 63.5t-18.5 96v397h78v-378q0 -159 143 -159q144 0 144 156v381zM324 655h-69l-97 116h104z" />
    <glyph glyph-name="Uacute" unicode="&#xda;" horiz-adv-x="573" 
d="M430 589h78v-397q0 -55 -19 -96t-51.5 -63.5t-70.5 -33.5t-81 -11t-81 11t-70.5 33.5t-51 63.5t-18.5 96v397h78v-378q0 -159 143 -159q144 0 144 156v381zM319 655h-69l62 116h104z" />
    <glyph glyph-name="Ucircumflex" unicode="&#xdb;" horiz-adv-x="573" 
d="M430 589h78v-397q0 -55 -19 -96t-51.5 -63.5t-70.5 -33.5t-81 -11t-81 11t-70.5 33.5t-51 63.5t-18.5 96v397h78v-378q0 -159 143 -159q144 0 144 156v381zM263 779h46l121 -124h-87l-32 34q-8 9 -14 18t-8 13l-2 4h-2q-5 -14 -24 -35l-32 -34h-87z" />
    <glyph glyph-name="Udieresis" unicode="&#xdc;" horiz-adv-x="573" 
d="M430 589h78v-397q0 -55 -19 -96t-51.5 -63.5t-70.5 -33.5t-81 -11t-81 11t-70.5 33.5t-51 63.5t-18.5 96v397h78v-378q0 -159 143 -159q144 0 144 156v381zM137 710q0 22 16 38t38 16q23 0 38.5 -16t15.5 -38t-16 -38t-38 -16t-38 16t-16 38zM326 709q0 22 16 38t38 16
t38 -15.5t16 -38.5q0 -22 -16 -38t-38 -16t-38 16t-16 38z" />
    <glyph glyph-name="Yacute" unicode="&#xdd;" horiz-adv-x="464" 
d="M98 589l101 -202q14 -28 24 -51t13 -32l2 -9h4q7 28 36 91l94 203h82l-177 -357v-232h-78v232l-189 357h88zM265 655h-69l62 116h104z" />
    <glyph glyph-name="Thorn" unicode="&#xde;" horiz-adv-x="488" 
d="M163 413v-225h90q68 0 95.5 29t27.5 86q0 110 -125 110h-88zM163 0h-78v589h78v-111h89q206 0 206 -170q0 -88 -50 -136t-148 -48h-97v-124z" />
    <glyph glyph-name="germandbls" unicode="&#xdf;" horiz-adv-x="521" 
d="M75 0v463q0 107 50.5 159.5t141.5 52.5q84 0 130.5 -41.5t46.5 -109.5q0 -123 -118 -140v-4q73 -4 114 -53t41 -134q0 -97 -42.5 -151t-129.5 -54q-48 0 -76.5 17t-47.5 55l48 47q24 -61 79 -61q92 0 92 149q0 70 -39 112t-106 42h-50v61h35q122 0 122 102q0 48 -27 76
t-74 28q-114 0 -114 -158v-458h-76z" />
    <glyph glyph-name="agrave" unicode="&#xe0;" horiz-adv-x="472" 
d="M311 137v74q-100 2 -147.5 -20t-47.5 -70q0 -33 21 -53.5t60 -20.5q43 0 78.5 25t35.5 65zM387 334v-235q0 -43 35 -43q16 0 25 4v-61q-22 -6 -41 -6q-81 0 -90 75q-33 -80 -137 -80q-62 0 -100.5 33.5t-38.5 90.5q0 166 271 153v62q0 84 -93 84q-87 0 -93 -77l-70 10
q5 68 54.5 98.5t117.5 30.5q69 0 114.5 -32.5t45.5 -106.5zM269 530h-65l-115 143h105z" />
    <glyph glyph-name="aacute" unicode="&#xe1;" horiz-adv-x="472" 
d="M311 137v74q-100 2 -147.5 -20t-47.5 -70q0 -33 21 -53.5t60 -20.5q43 0 78.5 25t35.5 65zM387 334v-235q0 -43 35 -43q16 0 25 4v-61q-22 -6 -41 -6q-81 0 -90 75q-33 -80 -137 -80q-62 0 -100.5 33.5t-38.5 90.5q0 166 271 153v62q0 84 -93 84q-87 0 -93 -77l-70 10
q5 68 54.5 98.5t117.5 30.5q69 0 114.5 -32.5t45.5 -106.5zM255 530h-65l75 143h105z" />
    <glyph glyph-name="acircumflex" unicode="&#xe2;" horiz-adv-x="472" 
d="M311 137v74q-100 2 -147.5 -20t-47.5 -70q0 -33 21 -53.5t60 -20.5q43 0 78.5 25t35.5 65zM387 334v-235q0 -43 35 -43q16 0 25 4v-61q-22 -6 -41 -6q-81 0 -90 75q-33 -80 -137 -80q-62 0 -100.5 33.5t-38.5 90.5q0 166 271 153v62q0 84 -93 84q-87 0 -93 -77l-70 10
q5 68 54.5 98.5t117.5 30.5q69 0 114.5 -32.5t45.5 -106.5zM208 673h42l122 -143h-81l-36 44q-8 11 -14 21t-8 15l-2 4h-4q-5 -16 -24 -40l-36 -44h-81z" />
    <glyph glyph-name="atilde" unicode="&#xe3;" horiz-adv-x="472" 
d="M311 137v74q-100 2 -147.5 -20t-47.5 -70q0 -33 21 -53.5t60 -20.5q43 0 78.5 25t35.5 65zM387 334v-235q0 -43 35 -43q16 0 25 4v-61q-22 -6 -41 -6q-81 0 -90 75q-33 -80 -137 -80q-62 0 -100.5 33.5t-38.5 90.5q0 166 271 153v62q0 84 -93 84q-87 0 -93 -77l-70 10
q5 68 54.5 98.5t117.5 30.5q69 0 114.5 -32.5t45.5 -106.5zM298 531q-27 0 -71 24q-4 2 -14 8t-13.5 7.5t-10 4.5t-12 4t-11.5 1q-36 0 -30 -47h-48q-17 46 3.5 79.5t65.5 33.5q36 0 83 -28q36 -22 53 -22q32 0 29 50h51q15 -51 -5 -83t-70 -32z" />
    <glyph glyph-name="adieresis" unicode="&#xe4;" horiz-adv-x="472" 
d="M311 137v74q-100 2 -147.5 -20t-47.5 -70q0 -33 21 -53.5t60 -20.5q43 0 78.5 25t35.5 65zM387 334v-235q0 -43 35 -43q16 0 25 4v-61q-22 -6 -41 -6q-81 0 -90 75q-33 -80 -137 -80q-62 0 -100.5 33.5t-38.5 90.5q0 166 271 153v62q0 84 -93 84q-87 0 -93 -77l-70 10
q5 68 54.5 98.5t117.5 30.5q69 0 114.5 -32.5t45.5 -106.5zM80 595q0 22 16 38t38 16t38 -15.5t16 -38.5q0 -22 -16 -38t-38 -16t-38 16t-16 38zM269 594q0 22 16 38t38 16q23 0 38.5 -16t15.5 -38t-16 -38t-38 -16t-38 16t-16 38z" />
    <glyph glyph-name="aring" unicode="&#xe5;" horiz-adv-x="472" 
d="M311 137v74q-100 2 -147.5 -20t-47.5 -70q0 -33 21 -53.5t60 -20.5q43 0 78.5 25t35.5 65zM387 334v-235q0 -43 35 -43q16 0 25 4v-61q-22 -6 -41 -6q-81 0 -90 75q-33 -80 -137 -80q-62 0 -100.5 33.5t-38.5 90.5q0 166 271 153v62q0 84 -93 84q-87 0 -93 -77l-70 10
q5 68 54.5 98.5t117.5 30.5q69 0 114.5 -32.5t45.5 -106.5zM229 524q-46 0 -72.5 27t-26.5 69q0 39 27.5 66t71.5 27t71.5 -27t27.5 -66q0 -42 -26.5 -69t-72.5 -27zM229 677q-26 0 -41.5 -16.5t-15.5 -42.5q0 -25 15 -40t42 -15t42 15t15 40q0 26 -15.5 42.5t-41.5 16.5z
" />
    <glyph glyph-name="ae" unicode="&#xe6;" horiz-adv-x="739" 
d="M515 48q86 0 108 80l67 -15q-23 -125 -181 -125q-107 0 -161 83q-15 -39 -59 -61t-101 -22q-69 0 -108.5 32t-39.5 97q0 157 271 158q4 31 14 62q-6 36 -33.5 55t-65.5 19q-43 0 -70.5 -20t-30.5 -57l-70 10q5 68 54.5 98.5t117.5 30.5q101 0 138 -64q56 64 150 64
q85 0 132 -53.5t47 -141.5q0 -42 -9 -64h-303q4 -75 38.5 -120.5t94.5 -45.5zM384 275h235q1 8 1 21q0 49 -30.5 82.5t-79.5 33.5q-53 0 -86 -35t-40 -102zM197 47q46 0 81.5 25t40.5 67q-8 32 -10 76q-99 -1 -146 -22t-47 -72q0 -33 21 -53.5t60 -20.5z" />
    <glyph glyph-name="ccedilla" unicode="&#xe7;" horiz-adv-x="454" 
d="M346 -126q0 -42 -28.5 -63.5t-72.5 -21.5q-57 0 -85 38l23 48q25 -37 62 -37q38 0 38 36q0 44 -70 44l5 72q-80 8 -126.5 70t-46.5 168q0 115 55.5 180t150.5 65q72 0 115 -36.5t47 -105.5l-71 -11q-14 90 -96 90q-61 0 -94.5 -50t-33.5 -133q0 -78 36.5 -128t96.5 -50
q82 0 104 79l64 -14q-19 -118 -159 -125l-2 -31q88 -8 88 -84z" />
    <glyph glyph-name="egrave" unicode="&#xe8;" horiz-adv-x="475" 
d="M251 48q86 0 108 80l67 -15q-23 -125 -181 -125q-92 0 -146 63t-54 177q0 115 55.5 180t150.5 65q85 0 132 -53.5t47 -141.5q0 -42 -9 -64h-303q4 -75 38.5 -120.5t94.5 -45.5zM120 275h235q1 8 1 21q0 49 -30.5 82.5t-79.5 33.5q-53 0 -86 -35t-40 -102zM292 530h-65
l-115 143h105z" />
    <glyph glyph-name="eacute" unicode="&#xe9;" horiz-adv-x="475" 
d="M251 48q86 0 108 80l67 -15q-23 -125 -181 -125q-92 0 -146 63t-54 177q0 115 55.5 180t150.5 65q85 0 132 -53.5t47 -141.5q0 -42 -9 -64h-303q4 -75 38.5 -120.5t94.5 -45.5zM120 275h235q1 8 1 21q0 49 -30.5 82.5t-79.5 33.5q-53 0 -86 -35t-40 -102zM278 530h-65
l75 143h105z" />
    <glyph glyph-name="ecircumflex" unicode="&#xea;" horiz-adv-x="475" 
d="M251 48q86 0 108 80l67 -15q-23 -125 -181 -125q-92 0 -146 63t-54 177q0 115 55.5 180t150.5 65q85 0 132 -53.5t47 -141.5q0 -42 -9 -64h-303q4 -75 38.5 -120.5t94.5 -45.5zM120 275h235q1 8 1 21q0 49 -30.5 82.5t-79.5 33.5q-53 0 -86 -35t-40 -102zM232 673h42
l122 -143h-81l-36 44q-8 11 -14 21t-8 15l-2 4h-4q-5 -16 -24 -40l-36 -44h-81z" />
    <glyph glyph-name="edieresis" unicode="&#xeb;" horiz-adv-x="475" 
d="M251 48q86 0 108 80l67 -15q-23 -125 -181 -125q-92 0 -146 63t-54 177q0 115 55.5 180t150.5 65q85 0 132 -53.5t47 -141.5q0 -42 -9 -64h-303q4 -75 38.5 -120.5t94.5 -45.5zM120 275h235q1 8 1 21q0 49 -30.5 82.5t-79.5 33.5q-53 0 -86 -35t-40 -102zM103 595
q0 22 16 38t38 16q23 0 38.5 -15.5t15.5 -38.5q0 -22 -16 -38t-38 -16t-38 16t-16 38zM292 594q0 22 16 38t38 16t38 -16t16 -38t-16 -38t-38 -16t-38 16t-16 38z" />
    <glyph glyph-name="igrave" unicode="&#xec;" horiz-adv-x="226" 
d="M151 530h-65l-115 143h105zM75 462h76v-462h-76v462z" />
    <glyph glyph-name="iacute" unicode="&#xed;" horiz-adv-x="226" 
d="M141 530h-65l75 143h105zM75 462h76v-462h-76v462z" />
    <glyph glyph-name="icircumflex" unicode="&#xee;" horiz-adv-x="226" 
d="M75 462h76v-462h-76v462zM92 673h42l122 -143h-81l-36 44q-8 11 -14 21t-8 15l-2 4h-4q-5 -16 -24 -40l-36 -44h-81z" />
    <glyph glyph-name="idieresis" unicode="&#xef;" horiz-adv-x="226" 
d="M-36 595q0 22 16 38t38 16t38 -15.5t16 -38.5q0 -22 -16 -38t-38 -16t-38 16t-16 38zM153 594q0 22 16 38t38 16q23 0 38.5 -16t15.5 -38t-16 -38t-38 -16t-38 16t-16 38zM75 462h76v-462h-76v462z" />
    <glyph glyph-name="eth" unicode="&#xf0;" horiz-adv-x="503" 
d="M129 498l-11 41l126 25q-37 35 -123 72l59 36q73 -29 137 -89l101 20l11 -42l-75 -16q49 -60 76.5 -137t27.5 -150q0 -137 -55 -203.5t-152 -66.5q-95 0 -150.5 62.5t-55.5 177.5q0 113 53 174t138 61q78 0 121 -61h4q-25 70 -81 127zM381 228q0 85 -34.5 130t-98.5 45
q-128 0 -128 -175q0 -86 33 -133t97 -47q131 0 131 180z" />
    <glyph glyph-name="ntilde" unicode="&#xf1;" 
d="M132 462l9 -89q36 100 148 100q63 0 102.5 -35.5t39.5 -106.5v-331h-76v312q0 45 -22.5 70t-64.5 25q-52 0 -84.5 -32t-32.5 -106v-269h-76v462h57zM327 531q-27 0 -71 24q-4 2 -14 8t-13.5 7.5t-10 4.5t-12 4t-11.5 1q-36 0 -30 -47h-48q-17 46 3.5 79.5t65.5 33.5
q36 0 83 -28q36 -22 53 -22q32 0 29 50h51q15 -51 -5 -83t-70 -32z" />
    <glyph glyph-name="ograve" unicode="&#xf2;" horiz-adv-x="502" 
d="M251 -12q-95 0 -150.5 64.5t-55.5 181.5q0 116 55 177.5t151 61.5t151 -61.5t55 -177.5q0 -117 -55.5 -181.5t-150.5 -64.5zM251 411q-131 0 -131 -177q0 -186 131 -186t131 186q0 177 -131 177zM291 530h-65l-115 143h105z" />
    <glyph glyph-name="oacute" unicode="&#xf3;" horiz-adv-x="502" 
d="M251 -12q-95 0 -150.5 64.5t-55.5 181.5q0 116 55 177.5t151 61.5t151 -61.5t55 -177.5q0 -117 -55.5 -181.5t-150.5 -64.5zM251 411q-131 0 -131 -177q0 -186 131 -186t131 186q0 177 -131 177zM277 530h-65l75 143h105z" />
    <glyph glyph-name="ocircumflex" unicode="&#xf4;" horiz-adv-x="502" 
d="M251 -12q-95 0 -150.5 64.5t-55.5 181.5q0 116 55 177.5t151 61.5t151 -61.5t55 -177.5q0 -117 -55.5 -181.5t-150.5 -64.5zM251 411q-131 0 -131 -177q0 -186 131 -186t131 186q0 177 -131 177zM230 673h42l122 -143h-81l-36 44q-8 11 -14 21t-8 15l-2 4h-4
q-5 -16 -24 -40l-36 -44h-81z" />
    <glyph glyph-name="otilde" unicode="&#xf5;" horiz-adv-x="502" 
d="M251 -12q-95 0 -150.5 64.5t-55.5 181.5q0 116 55 177.5t151 61.5t151 -61.5t55 -177.5q0 -117 -55.5 -181.5t-150.5 -64.5zM251 411q-131 0 -131 -177q0 -186 131 -186t131 186q0 177 -131 177zM319 531q-27 0 -71 24q-4 2 -14 8t-13.5 7.5t-10 4.5t-12 4t-11.5 1
q-36 0 -30 -47h-48q-17 46 3.5 79.5t65.5 33.5q36 0 83 -28q36 -22 53 -22q32 0 29 50h51q15 -51 -5 -83t-70 -32z" />
    <glyph glyph-name="odieresis" unicode="&#xf6;" horiz-adv-x="502" 
d="M251 -12q-95 0 -150.5 64.5t-55.5 181.5q0 116 55 177.5t151 61.5t151 -61.5t55 -177.5q0 -117 -55.5 -181.5t-150.5 -64.5zM251 411q-131 0 -131 -177q0 -186 131 -186t131 186q0 177 -131 177zM102 595q0 22 16 38t38 16t38 -15.5t16 -38.5q0 -22 -16 -38t-38 -16
t-38 16t-16 38zM291 594q0 22 16 38t38 16q23 0 38.5 -16t15.5 -38t-16 -38t-38 -16t-38 16t-16 38z" />
    <glyph glyph-name="divide" unicode="&#xf7;" horiz-adv-x="498" 
d="M453 225h-408v46h408v-46zM203 70q0 18 12.5 30.5t30.5 12.5q17 0 30 -12.5t13 -30.5q0 -17 -13 -29.5t-30 -12.5q-18 0 -30.5 12.5t-12.5 29.5zM203 419q0 18 12.5 31t30.5 13q17 0 30 -13t13 -31q0 -17 -13 -29.5t-30 -12.5q-18 0 -30.5 12.5t-12.5 29.5z" />
    <glyph glyph-name="oslash" unicode="&#xf8;" horiz-adv-x="502" 
d="M69 -14l-45 38l55 59q-34 60 -34 151q0 116 55 177.5t151 61.5q87 0 142 -53l48 52l45 -38l-58 -62q29 -56 29 -138q0 -117 -55.5 -181.5t-150.5 -64.5q-84 0 -135 48zM251 411q-131 0 -131 -177q0 -55 12 -94l214 230q-32 41 -95 41zM382 234q0 44 -9 79l-212 -228
q31 -37 90 -37q131 0 131 186z" />
    <glyph glyph-name="ugrave" unicode="&#xf9;" 
d="M361 0l-9 83q-33 -95 -142 -95q-140 0 -140 154v320h76v-313q0 -55 21.5 -80t67.5 -25q43 0 79 37t36 100v281h76v-462h-65zM288 530h-65l-115 143h105z" />
    <glyph glyph-name="uacute" unicode="&#xfa;" 
d="M361 0l-9 83q-33 -95 -142 -95q-140 0 -140 154v320h76v-313q0 -55 21.5 -80t67.5 -25q43 0 79 37t36 100v281h76v-462h-65zM274 530h-65l75 143h105z" />
    <glyph glyph-name="ucircumflex" unicode="&#xfb;" 
d="M361 0l-9 83q-33 -95 -142 -95q-140 0 -140 154v320h76v-313q0 -55 21.5 -80t67.5 -25q43 0 79 37t36 100v281h76v-462h-65zM227 673h42l122 -143h-81l-36 44q-8 11 -14 21t-8 15l-2 4h-4q-5 -16 -24 -40l-36 -44h-81z" />
    <glyph glyph-name="udieresis" unicode="&#xfc;" 
d="M361 0l-9 83q-33 -95 -142 -95q-140 0 -140 154v320h76v-313q0 -55 21.5 -80t67.5 -25q43 0 79 37t36 100v281h76v-462h-65zM99 595q0 22 16 38t38 16q23 0 38.5 -15.5t15.5 -38.5q0 -22 -16 -38t-38 -16t-38 16t-16 38zM288 594q0 22 16 38t38 16t38 -16t16 -38t-16 -38
t-38 -16t-38 16t-16 38z" />
    <glyph glyph-name="yacute" unicode="&#xfd;" horiz-adv-x="426" 
d="M93 462l85 -268q13 -40 22.5 -76.5t12.5 -52.5l3 -16h4q9 53 36 144l81 269h79l-166 -499q-32 -96 -75 -133.5t-105 -37.5q-33 0 -63 11l5 63q29 -13 60 -13q39 0 63 26t46 94l-171 489h83zM246 530h-65l75 143h105z" />
    <glyph glyph-name="thorn" unicode="&#xfe;" horiz-adv-x="526" 
d="M151 268v-93q0 -64 36 -96.5t83 -32.5q58 0 95.5 48.5t37.5 140.5q0 86 -32.5 130.5t-89.5 44.5q-56 0 -93 -38t-37 -104zM151 61v-264h-76v871h76v-285q17 46 57 68t90 22q86 0 134.5 -60t48.5 -171q0 -108 -53.5 -181t-146.5 -73q-99 0 -130 73z" />
    <glyph glyph-name="ydieresis" unicode="&#xff;" horiz-adv-x="426" 
d="M93 462l85 -268q13 -40 22.5 -76.5t12.5 -52.5l3 -16h4q9 53 36 144l81 269h79l-166 -499q-32 -96 -75 -133.5t-105 -37.5q-33 0 -63 11l5 63q29 -13 60 -13q39 0 63 26t46 94l-171 489h83zM71 595q0 22 16 38t38 16q23 0 38.5 -15.5t15.5 -38.5q0 -22 -16 -38t-38 -16
t-38 16t-16 38zM260 594q0 22 16 38t38 16t38 -16t16 -38t-16 -38t-38 -16t-38 16t-16 38z" />
    <glyph glyph-name="Amacron" unicode="&#x100;" horiz-adv-x="554" 
d="M460 0l-61 174h-247l-61 -174h-81l215 589h106l213 -589h-84zM228 392l-54 -154h202l-53 153q-14 40 -25.5 78t-15.5 55l-4 18h-4q-14 -59 -46 -150zM401 677h-251v59h251v-59z" />
    <glyph glyph-name="amacron" unicode="&#x101;" horiz-adv-x="472" 
d="M311 137v74q-100 2 -147.5 -20t-47.5 -70q0 -33 21 -53.5t60 -20.5q43 0 78.5 25t35.5 65zM387 334v-235q0 -43 35 -43q16 0 25 4v-61q-22 -6 -41 -6q-81 0 -90 75q-33 -80 -137 -80q-62 0 -100.5 33.5t-38.5 90.5q0 166 271 153v62q0 84 -93 84q-87 0 -93 -77l-70 10
q5 68 54.5 98.5t117.5 30.5q69 0 114.5 -32.5t45.5 -106.5zM352 564h-251v61h251v-61z" />
    <glyph glyph-name="Abreve" unicode="&#x102;" horiz-adv-x="554" 
d="M460 0l-61 174h-247l-61 -174h-81l215 589h106l213 -589h-84zM228 392l-54 -154h202l-53 153q-14 40 -25.5 78t-15.5 55l-4 18h-4q-14 -59 -46 -150zM276 652q-60 0 -95 34t-35 92h61q6 -69 69 -69q64 0 70 69h61q0 -58 -35 -92t-96 -34z" />
    <glyph glyph-name="abreve" unicode="&#x103;" horiz-adv-x="472" 
d="M311 137v74q-100 2 -147.5 -20t-47.5 -70q0 -33 21 -53.5t60 -20.5q43 0 78.5 25t35.5 65zM387 334v-235q0 -43 35 -43q16 0 25 4v-61q-22 -6 -41 -6q-81 0 -90 75q-33 -80 -137 -80q-62 0 -100.5 33.5t-38.5 90.5q0 166 271 153v62q0 84 -93 84q-87 0 -93 -77l-70 10
q5 68 54.5 98.5t117.5 30.5q69 0 114.5 -32.5t45.5 -106.5zM229 528q-61 0 -96 36.5t-35 99.5h61q3 -39 18 -58.5t52 -19.5t52 19.5t18 58.5h61q0 -63 -35 -99.5t-96 -36.5z" />
    <glyph glyph-name="Aogonek" unicode="&#x104;" horiz-adv-x="554" 
d="M322 -109q0 57 37.5 91t89.5 48l-50 144h-247l-61 -174h-81l215 589h106l213 -589h-35q-42 0 -79.5 -26.5t-37.5 -72.5q0 -60 54 -60q47 0 71 46l29 -35q-32 -63 -112 -63q-52 0 -82 27t-30 75zM228 392l-54 -154h202l-53 153q-14 40 -25.5 78t-15.5 55l-4 18h-4
q-14 -59 -46 -150z" />
    <glyph glyph-name="aogonek" unicode="&#x105;" horiz-adv-x="472" 
d="M238 -109q0 85 104 125q-23 15 -26 52q-16 -39 -54 -59.5t-83 -20.5q-62 0 -100.5 33.5t-38.5 90.5q0 166 271 153v62q0 84 -93 84q-87 0 -93 -77l-70 10q5 68 54.5 98.5t117.5 30.5q69 0 114.5 -32.5t45.5 -106.5v-235q0 -43 35 -43q16 0 25 4v-61q-55 -3 -97 -26
t-42 -72q0 -60 54 -60q47 0 71 46l29 -35q-32 -63 -112 -63q-52 0 -82 27t-30 75zM311 137v74q-100 2 -147.5 -20t-47.5 -70q0 -33 21 -53.5t60 -20.5q43 0 78.5 25t35.5 65z" />
    <glyph glyph-name="Cacute" unicode="&#x106;" horiz-adv-x="556" 
d="M475 152l55 -46q-40 -62 -94 -90t-137 -28q-116 0 -185 80t-69 224q0 145 74.5 227t196.5 82q156 0 215 -139l-71 -35q-19 53 -58.5 80.5t-91.5 27.5q-86 0 -134.5 -64.5t-48.5 -177.5q0 -112 45 -174t131 -62q59 0 98.5 22t73.5 73zM336 655h-69l62 116h104z" />
    <glyph glyph-name="cacute" unicode="&#x107;" horiz-adv-x="454" 
d="M355 128l64 -14q-20 -126 -176 -126q-90 0 -144 63t-54 177q0 115 55.5 180t150.5 65q72 0 115 -36.5t47 -105.5l-71 -11q-14 90 -96 90q-61 0 -94.5 -50t-33.5 -133q0 -78 36.5 -128t96.5 -50q82 0 104 79zM279 530h-65l75 143h105z" />
    <glyph glyph-name="Ccircumflex" unicode="&#x108;" horiz-adv-x="556" 
d="M475 152l55 -46q-40 -62 -94 -90t-137 -28q-116 0 -185 80t-69 224q0 145 74.5 227t196.5 82q156 0 215 -139l-71 -35q-19 53 -58.5 80.5t-91.5 27.5q-86 0 -134.5 -64.5t-48.5 -177.5q0 -112 45 -174t131 -62q59 0 98.5 22t73.5 73zM290 779h46l121 -124h-87l-32 34
q-8 9 -14 18t-8 13l-2 4h-2q-5 -14 -24 -35l-32 -34h-87z" />
    <glyph glyph-name="ccircumflex" unicode="&#x109;" horiz-adv-x="454" 
d="M355 128l64 -14q-20 -126 -176 -126q-90 0 -144 63t-54 177q0 115 55.5 180t150.5 65q72 0 115 -36.5t47 -105.5l-71 -11q-14 90 -96 90q-61 0 -94.5 -50t-33.5 -133q0 -78 36.5 -128t96.5 -50q82 0 104 79zM229 673h42l122 -143h-81l-36 44q-8 11 -14 21t-8 15l-2 4h-4
q-5 -16 -24 -40l-36 -44h-81z" />
    <glyph glyph-name="Cdotaccent" unicode="&#x10a;" horiz-adv-x="556" 
d="M475 152l55 -46q-40 -62 -94 -90t-137 -28q-116 0 -185 80t-69 224q0 145 74.5 227t196.5 82q156 0 215 -139l-71 -35q-19 53 -58.5 80.5t-91.5 27.5q-86 0 -134.5 -64.5t-48.5 -177.5q0 -112 45 -174t131 -62q59 0 98.5 22t73.5 73zM254 709q0 23 15.5 39t37.5 16
q23 0 39 -16t16 -39q0 -22 -16 -38t-39 -16q-22 0 -37.5 16t-15.5 38z" />
    <glyph glyph-name="cdotaccent" unicode="&#x10b;" horiz-adv-x="454" 
d="M355 128l64 -14q-20 -126 -176 -126q-90 0 -144 63t-54 177q0 115 55.5 180t150.5 65q72 0 115 -36.5t47 -105.5l-71 -11q-14 90 -96 90q-61 0 -94.5 -50t-33.5 -133q0 -78 36.5 -128t96.5 -50q82 0 104 79zM196 592q0 23 15.5 39t37.5 16q23 0 39 -16t16 -39
q0 -22 -16 -38t-39 -16q-22 0 -37.5 16t-15.5 38z" />
    <glyph glyph-name="Ccaron" unicode="&#x10c;" horiz-adv-x="556" 
d="M475 152l55 -46q-40 -62 -94 -90t-137 -28q-116 0 -185 80t-69 224q0 145 74.5 227t196.5 82q156 0 215 -139l-71 -35q-19 53 -58.5 80.5t-91.5 27.5q-86 0 -134.5 -64.5t-48.5 -177.5q0 -112 45 -174t131 -62q59 0 98.5 22t73.5 73zM328 650h-46l-121 124h87l32 -34
q8 -9 14 -18t8 -13l2 -4h2q5 14 24 35l32 34h87z" />
    <glyph glyph-name="ccaron" unicode="&#x10d;" horiz-adv-x="454" 
d="M355 128l64 -14q-20 -126 -176 -126q-90 0 -144 63t-54 177q0 115 55.5 180t150.5 65q72 0 115 -36.5t47 -105.5l-71 -11q-14 90 -96 90q-61 0 -94.5 -50t-33.5 -133q0 -78 36.5 -128t96.5 -50q82 0 104 79zM271 530h-42l-122 143h81l36 -46q8 -11 14 -21t8 -14l2 -5h4
q5 16 24 40l36 46h81z" />
    <glyph glyph-name="Dcaron" unicode="&#x10e;" horiz-adv-x="585" 
d="M163 65h85q95 0 152 57.5t57 175.5q0 121 -55.5 173.5t-144.5 52.5h-94v-459zM256 0h-171v589h172q132 0 207.5 -69.5t75.5 -218.5q0 -154 -79.5 -227.5t-204.5 -73.5zM280 650h-46l-121 124h87l32 -34q8 -9 14 -18t8 -13l2 -4h2q5 14 24 35l32 34h87z" />
    <glyph glyph-name="dcaron" unicode="&#x10f;" horiz-adv-x="526" 
d="M618 668l-51 -175h-55l16 175h90zM375 181v108q0 60 -37.5 92t-84.5 32q-60 0 -96 -45t-36 -143q0 -85 35 -130.5t96 -45.5q46 0 84.5 35t38.5 97zM374 399v269h77v-668h-67l-9 80q-37 -92 -148 -92q-76 0 -129 62t-53 174q0 118 54 183.5t153 65.5q43 0 78 -22t44 -52z
" />
    <glyph glyph-name="Dcroat" unicode="&#x110;" horiz-adv-x="585" 
d="M256 0h-171v260h-57v68h57v261h172q132 0 207.5 -69.5t75.5 -218.5q0 -154 -79.5 -227.5t-204.5 -73.5zM163 65h85q95 0 152 57.5t57 175.5q0 121 -55.5 173.5t-144.5 52.5h-94v-196h116v-68h-116v-195z" />
    <glyph glyph-name="dcroat" unicode="&#x111;" horiz-adv-x="526" 
d="M228 533v59h146v76h77v-76h66v-59h-66v-533h-67l-9 80q-37 -92 -148 -92q-76 0 -129 62t-53 174q0 118 54 183.5t153 65.5q43 0 78 -22t44 -52v134h-146zM375 181v108q0 60 -37.5 92t-84.5 32q-60 0 -96 -45t-36 -143q0 -85 35 -130.5t96 -45.5q46 0 84.5 35t38.5 97z
" />
    <glyph glyph-name="Emacron" unicode="&#x112;" horiz-adv-x="487" 
d="M437 68v-68h-352v589h352v-68h-274v-193h243v-68h-243v-192h274zM387 677h-251v59h251v-59z" />
    <glyph glyph-name="emacron" unicode="&#x113;" horiz-adv-x="475" 
d="M251 48q86 0 108 80l67 -15q-23 -125 -181 -125q-92 0 -146 63t-54 177q0 115 55.5 180t150.5 65q85 0 132 -53.5t47 -141.5q0 -42 -9 -64h-303q4 -75 38.5 -120.5t94.5 -45.5zM120 275h235q1 8 1 21q0 49 -30.5 82.5t-79.5 33.5q-53 0 -86 -35t-40 -102zM377 564h-251
v61h251v-61z" />
    <glyph glyph-name="Ebreve" unicode="&#x114;" horiz-adv-x="487" 
d="M437 68v-68h-352v589h352v-68h-274v-193h243v-68h-243v-192h274zM257 652q-60 0 -95 34t-35 92h61q6 -69 69 -69q64 0 70 69h61q0 -58 -35 -92t-96 -34z" />
    <glyph glyph-name="ebreve" unicode="&#x115;" horiz-adv-x="475" 
d="M251 48q86 0 108 80l67 -15q-23 -125 -181 -125q-92 0 -146 63t-54 177q0 115 55.5 180t150.5 65q85 0 132 -53.5t47 -141.5q0 -42 -9 -64h-303q4 -75 38.5 -120.5t94.5 -45.5zM120 275h235q1 8 1 21q0 49 -30.5 82.5t-79.5 33.5q-53 0 -86 -35t-40 -102zM249 528
q-61 0 -96 36.5t-35 99.5h61q3 -39 18 -58.5t52 -19.5t52 19.5t18 58.5h61q0 -63 -35 -99.5t-96 -36.5z" />
    <glyph glyph-name="Edotaccent" unicode="&#x116;" horiz-adv-x="487" 
d="M437 68v-68h-352v589h352v-68h-274v-193h243v-68h-243v-192h274zM202 709q0 23 15.5 39t37.5 16q23 0 39 -16t16 -39q0 -22 -16 -38t-39 -16q-22 0 -37.5 16t-15.5 38z" />
    <glyph glyph-name="edotaccent" unicode="&#x117;" horiz-adv-x="475" 
d="M251 48q86 0 108 80l67 -15q-23 -125 -181 -125q-92 0 -146 63t-54 177q0 115 55.5 180t150.5 65q85 0 132 -53.5t47 -141.5q0 -42 -9 -64h-303q4 -75 38.5 -120.5t94.5 -45.5zM120 275h235q1 8 1 21q0 49 -30.5 82.5t-79.5 33.5q-53 0 -86 -35t-40 -102zM198 592
q0 23 15.5 39t37.5 16q23 0 39 -16t16 -39q0 -22 -16 -38t-39 -16q-22 0 -37.5 16t-15.5 38z" />
    <glyph glyph-name="Eogonek" unicode="&#x118;" horiz-adv-x="487" 
d="M437 68v-68h-12q-51 0 -84 -25.5t-33 -73.5q0 -60 54 -60q47 0 71 46l29 -35q-32 -63 -112 -63q-52 0 -82 27t-30 75q0 75 73 109h-226v589h352v-68h-274v-193h243v-68h-243v-192h274z" />
    <glyph glyph-name="eogonek" unicode="&#x119;" horiz-adv-x="475" 
d="M177 -109q0 59 46 98q-83 8 -130.5 69.5t-47.5 169.5q0 115 55.5 180t150.5 65q85 0 132 -53.5t47 -141.5q0 -42 -9 -64h-303q4 -75 38.5 -120.5t94.5 -45.5q86 0 108 80l67 -15q-9 -51 -36.5 -76t-69.5 -39q-73 -26 -73 -97q0 -60 54 -60q47 0 71 46l29 -35
q-31 -63 -112 -63q-52 0 -82 27t-30 75zM120 275h235q1 8 1 21q0 49 -30.5 82.5t-79.5 33.5q-53 0 -86 -35t-40 -102z" />
    <glyph glyph-name="Ecaron" unicode="&#x11a;" horiz-adv-x="487" 
d="M437 68v-68h-352v589h352v-68h-274v-193h243v-68h-243v-192h274zM284 650h-46l-121 124h87l32 -34q8 -9 14 -18t8 -13l2 -4h2q5 14 24 35l32 34h87z" />
    <glyph glyph-name="ecaron" unicode="&#x11b;" horiz-adv-x="475" 
d="M251 48q86 0 108 80l67 -15q-23 -125 -181 -125q-92 0 -146 63t-54 177q0 115 55.5 180t150.5 65q85 0 132 -53.5t47 -141.5q0 -42 -9 -64h-303q4 -75 38.5 -120.5t94.5 -45.5zM120 275h235q1 8 1 21q0 49 -30.5 82.5t-79.5 33.5q-53 0 -86 -35t-40 -102zM273 530h-42
l-122 143h81l36 -46q8 -11 14 -21t8 -14l2 -5h4q5 16 24 40l36 46h81z" />
    <glyph glyph-name="Gcircumflex" unicode="&#x11c;" horiz-adv-x="604" 
d="M311 300h228v-300h-69l-9 79q-16 -42 -62.5 -66.5t-99.5 -24.5q-116 0 -185 80t-69 224q0 145 74.5 227t196.5 82q160 0 215 -139l-71 -35q-19 53 -58.5 80.5t-91.5 27.5q-86 0 -134.5 -64.5t-48.5 -177.5q0 -110 45 -175t131 -65q66 0 112 31.5t46 93.5v52h-150v70z
M293 779h46l121 -124h-87l-32 34q-8 9 -14 18t-8 13l-2 4h-2q-5 -14 -24 -35l-32 -34h-87z" />
    <glyph glyph-name="gcircumflex" unicode="&#x11d;" horiz-adv-x="479" 
d="M226 473q85 0 134 -40q27 12 36 70l68 -24q-5 -33 -25 -54.5t-50 -27.5q22 -35 22 -88q0 -77 -52 -118.5t-131 -41.5q-40 0 -61 8q-35 -18 -35 -51q0 -42 54 -42h107q159 0 159 -126q0 -42 -21 -72.5t-57.5 -46.5t-77 -23t-88.5 -7q-198 0 -198 123q0 46 31.5 76t86.5 34
q-29 4 -45 22.5t-16 46.5q0 61 66 77q-88 40 -88 141q0 76 49.5 120t131.5 44zM83 -83q0 -73 131 -73q165 0 165 84q0 69 -86 69h-95q-115 0 -115 -80zM119 310q0 -48 28.5 -76.5t78.5 -28.5q51 0 80.5 26.5t29.5 78.5t-29.5 79.5t-80.5 26.5t-79 -28t-28 -78zM216 673h42
l122 -143h-81l-36 44q-8 11 -14 21t-8 15l-2 4h-4q-5 -16 -24 -40l-36 -44h-81z" />
    <glyph glyph-name="Gbreve" unicode="&#x11e;" horiz-adv-x="604" 
d="M311 300h228v-300h-69l-9 79q-16 -42 -62.5 -66.5t-99.5 -24.5q-116 0 -185 80t-69 224q0 145 74.5 227t196.5 82q160 0 215 -139l-71 -35q-19 53 -58.5 80.5t-91.5 27.5q-86 0 -134.5 -64.5t-48.5 -177.5q0 -110 45 -175t131 -65q66 0 112 31.5t46 93.5v52h-150v70z
M316 652q-60 0 -95 34t-35 92h61q6 -69 69 -69q64 0 70 69h61q0 -58 -35 -92t-96 -34z" />
    <glyph glyph-name="gbreve" unicode="&#x11f;" horiz-adv-x="479" 
d="M226 473q85 0 134 -40q27 12 36 70l68 -24q-5 -33 -25 -54.5t-50 -27.5q22 -35 22 -88q0 -77 -52 -118.5t-131 -41.5q-40 0 -61 8q-35 -18 -35 -51q0 -42 54 -42h107q159 0 159 -126q0 -42 -21 -72.5t-57.5 -46.5t-77 -23t-88.5 -7q-198 0 -198 123q0 46 31.5 76t86.5 34
q-29 4 -45 22.5t-16 46.5q0 61 66 77q-88 40 -88 141q0 76 49.5 120t131.5 44zM83 -83q0 -73 131 -73q165 0 165 84q0 69 -86 69h-95q-115 0 -115 -80zM119 310q0 -48 28.5 -76.5t78.5 -28.5q51 0 80.5 26.5t29.5 78.5t-29.5 79.5t-80.5 26.5t-79 -28t-28 -78zM233 528
q-61 0 -96 36.5t-35 99.5h61q3 -39 18 -58.5t52 -19.5t52 19.5t18 58.5h61q0 -63 -35 -99.5t-96 -36.5z" />
    <glyph glyph-name="Gdotaccent" unicode="&#x120;" horiz-adv-x="604" 
d="M311 300h228v-300h-69l-9 79q-16 -42 -62.5 -66.5t-99.5 -24.5q-116 0 -185 80t-69 224q0 145 74.5 227t196.5 82q160 0 215 -139l-71 -35q-19 53 -58.5 80.5t-91.5 27.5q-86 0 -134.5 -64.5t-48.5 -177.5q0 -110 45 -175t131 -65q66 0 112 31.5t46 93.5v52h-150v70z
M262 725q0 23 15.5 39t37.5 16q23 0 39 -16t16 -39q0 -22 -16 -38t-39 -16q-22 0 -37.5 16t-15.5 38z" />
    <glyph glyph-name="gdotaccent" unicode="&#x121;" horiz-adv-x="479" 
d="M226 473q85 0 134 -40q27 12 36 70l68 -24q-5 -33 -25 -54.5t-50 -27.5q22 -35 22 -88q0 -77 -52 -118.5t-131 -41.5q-40 0 -61 8q-35 -18 -35 -51q0 -42 54 -42h107q159 0 159 -126q0 -42 -21 -72.5t-57.5 -46.5t-77 -23t-88.5 -7q-198 0 -198 123q0 46 31.5 76t86.5 34
q-29 4 -45 22.5t-16 46.5q0 61 66 77q-88 40 -88 141q0 76 49.5 120t131.5 44zM83 -83q0 -73 131 -73q165 0 165 84q0 69 -86 69h-95q-115 0 -115 -80zM119 310q0 -48 28.5 -76.5t78.5 -28.5q51 0 80.5 26.5t29.5 78.5t-29.5 79.5t-80.5 26.5t-79 -28t-28 -78zM175 594
q0 23 15.5 39t37.5 16q23 0 39 -16t16 -39q0 -22 -16 -38t-39 -16q-22 0 -37.5 16t-15.5 38z" />
    <glyph glyph-name="Gcommaaccent" unicode="&#x122;" horiz-adv-x="604" 
d="M311 300h228v-300h-69l-9 79q-16 -42 -62.5 -66.5t-99.5 -24.5q-116 0 -185 80t-69 224q0 145 74.5 227t196.5 82q160 0 215 -139l-71 -35q-19 53 -58.5 80.5t-91.5 27.5q-86 0 -134.5 -64.5t-48.5 -177.5q0 -110 45 -175t131 -65q66 0 112 31.5t46 93.5v52h-150v70z
M382 -143q0 -53 -28 -77t-85 -24v34q30 2 43.5 11.5t13.5 33.5q-26 -5 -41.5 8t-15.5 36t14.5 36t38.5 13q25 0 42.5 -19.5t17.5 -51.5z" />
    <glyph glyph-name="gcommaaccent" unicode="&#x123;" horiz-adv-x="479" 
d="M226 473q85 0 134 -40q27 12 36 70l68 -24q-5 -33 -25 -54.5t-50 -27.5q22 -35 22 -88q0 -77 -52 -118.5t-131 -41.5q-40 0 -61 8q-35 -18 -35 -51q0 -42 54 -42h107q159 0 159 -126q0 -42 -21 -72.5t-57.5 -46.5t-77 -23t-88.5 -7q-198 0 -198 123q0 46 31.5 76t86.5 34
q-29 4 -45 22.5t-16 46.5q0 61 66 77q-88 40 -88 141q0 76 49.5 120t131.5 44zM83 -83q0 -73 131 -73q165 0 165 84q0 69 -86 69h-95q-115 0 -115 -80zM119 310q0 -48 28.5 -76.5t78.5 -28.5q51 0 80.5 26.5t29.5 78.5t-29.5 79.5t-80.5 26.5t-79 -28t-28 -78zM165 605
q0 53 28 77t85 24v-34q-30 -2 -43.5 -11.5t-13.5 -33.5q26 5 41.5 -8t15.5 -36t-14.5 -36t-38.5 -13q-25 0 -42.5 19.5t-17.5 51.5z" />
    <glyph glyph-name="Hcircumflex" unicode="&#x124;" horiz-adv-x="624" 
d="M163 0h-78v589h78v-256h298v256h78v-589h-78v265h-298v-265zM289 779h46l121 -124h-87l-32 34q-8 9 -14 18t-8 13l-2 4h-2q-5 -14 -24 -35l-32 -34h-87z" />
    <glyph glyph-name="hcircumflex" unicode="&#x125;" 
d="M151 668v-294q32 99 138 99q63 0 102.5 -35.5t39.5 -106.5v-331h-76v313q0 44 -22.5 69t-64.5 25q-52 0 -84.5 -32t-32.5 -106v-269h-76v668h76zM91 819h46l121 -124h-87l-32 34q-8 9 -14 18t-8 13l-2 4h-2q-5 -14 -24 -35l-32 -34h-87z" />
    <glyph glyph-name="Hbar" unicode="&#x126;" horiz-adv-x="641" 
d="M15 419v68h76v102h78v-102h298v102h78v-102h81v-68h-81v-419h-78v265h-298v-265h-78v419h-76zM169 333h298v86h-298v-86z" />
    <glyph glyph-name="hbar" unicode="&#x127;" 
d="M151 668v-76h145v-59h-145v-159q32 99 138 99q63 0 102.5 -35.5t39.5 -106.5v-331h-76v313q0 44 -22.5 69t-64.5 25q-52 0 -84.5 -32t-32.5 -106v-269h-76v533h-68v59h68v76h76z" />
    <glyph glyph-name="Itilde" unicode="&#x128;" horiz-adv-x="248" 
d="M85 589h78v-589h-78v589zM193 655q-27 0 -71 24q-4 2 -14 8t-13.5 7.5t-10 4.5t-12 4t-11.5 1q-36 0 -30 -47h-48q-17 46 3.5 81t65.5 35q36 0 83 -28q36 -22 53 -22q32 0 29 50h51q15 -51 -5 -84.5t-70 -33.5z" />
    <glyph glyph-name="itilde" unicode="&#x129;" horiz-adv-x="226" 
d="M182 531q-27 0 -71 24q-4 2 -14 8t-13.5 7.5t-10 4.5t-12 4t-11.5 1q-36 0 -30 -47h-48q-17 46 3.5 79.5t65.5 33.5q36 0 83 -28q36 -22 53 -22q32 0 29 50h51q15 -51 -5 -83t-70 -32zM75 462h76v-462h-76v462z" />
    <glyph glyph-name="Imacron" unicode="&#x12a;" horiz-adv-x="248" 
d="M85 589h78v-589h-78v589zM250 677h-251v59h251v-59z" />
    <glyph glyph-name="imacron" unicode="&#x12b;" horiz-adv-x="226" 
d="M221 564h-216v61h216v-61zM75 462h76v-462h-76v462z" />
    <glyph glyph-name="Ibreve" unicode="&#x12c;" horiz-adv-x="248" 
d="M85 589h78v-589h-78v589zM124 652q-60 0 -95 34t-35 92h61q6 -69 69 -69q64 0 70 69h61q0 -58 -35 -92t-96 -34z" />
    <glyph glyph-name="ibreve" unicode="&#x12d;" horiz-adv-x="226" 
d="M113 528q-61 0 -96 36.5t-35 99.5h61q3 -39 18 -58.5t52 -19.5t52 19.5t18 58.5h61q0 -63 -35 -99.5t-96 -36.5zM75 462h76v-462h-76v462z" />
    <glyph glyph-name="Iogonek" unicode="&#x12e;" horiz-adv-x="248" 
d="M-24 -109q0 94 109 133v565h78v-589q-42 0 -79.5 -26.5t-37.5 -72.5q0 -60 54 -60q47 0 71 46l29 -35q-32 -63 -112 -63q-52 0 -82 27t-30 75z" />
    <glyph glyph-name="iogonek" unicode="&#x12f;" horiz-adv-x="226" 
d="M-36 -109q0 95 111 134v437h76v-462q-43 0 -80 -26t-37 -73q0 -60 54 -60q47 0 71 46l29 -35q-32 -63 -112 -63q-52 0 -82 27t-30 75zM59 612q0 23 15.5 39t37.5 16q23 0 39 -16t16 -39q0 -22 -16.5 -38t-38.5 -16t-37.5 16t-15.5 38z" />
    <glyph glyph-name="Idotaccent" unicode="&#x130;" horiz-adv-x="248" 
d="M85 589h78v-589h-78v589zM70 709q0 23 15.5 39t37.5 16q23 0 39 -16t16 -39q0 -22 -16 -38t-39 -16q-22 0 -37.5 16t-15.5 38z" />
    <glyph glyph-name="dotlessi" unicode="&#x131;" horiz-adv-x="226" 
d="M75 462h76v-462h-76v462z" />
    <glyph glyph-name="IJ" unicode="&#x132;" horiz-adv-x="630" 
d="M85 589h78v-589h-78v589zM487 589h78v-418q0 -96 -50.5 -139.5t-128.5 -43.5q-127 0 -182 116l63 41q25 -52 51 -71.5t70 -19.5q57 0 78 35t21 102v398z" />
    <glyph glyph-name="ij" unicode="&#x133;" horiz-adv-x="452" 
d="M59 612q0 23 15.5 39t37.5 16q23 0 39 -16t16 -39q0 -22 -16.5 -38t-38.5 -16t-37.5 16t-15.5 38zM75 462h76v-462h-76v462zM301 462h76v-473q0 -109 -51 -152t-155 -40v64q68 -5 99 23.5t31 92.5v485zM286 612q0 23 15.5 39t37.5 16q23 0 39 -16t16 -39q0 -22 -16.5 -38
t-38.5 -16t-37.5 16t-15.5 38z" />
    <glyph glyph-name="Jcircumflex" unicode="&#x134;" horiz-adv-x="426" 
d="M283 589h78v-418q0 -96 -50.5 -139.5t-128.5 -43.5q-127 0 -182 116l63 41q25 -52 51 -71.5t70 -19.5q57 0 78 35t21 102v398zM299 779h46l121 -124h-87l-32 34q-8 9 -14 18t-8 13l-2 4h-2q-5 -14 -24 -35l-32 -34h-87z" />
    <glyph glyph-name="jcircumflex" unicode="&#x135;" horiz-adv-x="226" 
d="M75 462h76v-473q0 -109 -51 -152t-155 -40v64q68 -5 99 23.5t31 92.5v485zM93 673h42l122 -143h-81l-36 44q-8 11 -14 21t-8 15l-2 4h-4q-5 -16 -24 -40l-36 -44h-81z" />
    <glyph glyph-name="Kcommaaccent" unicode="&#x136;" horiz-adv-x="522" 
d="M502 0h-96l-194 265h-49v-265h-78v589h78v-256h52l181 256h92l-211 -286zM317 -143q0 -53 -28 -77t-85 -24v34q30 2 43.5 11.5t13.5 33.5q-26 -5 -41.5 8t-15.5 36t14.5 36t38.5 13q25 0 42.5 -19.5t17.5 -51.5z" />
    <glyph glyph-name="kcommaaccent" unicode="&#x137;" horiz-adv-x="451" 
d="M237 247l209 -247h-96l-172 212h-27v-212h-76v668h76v-396h21l165 190h94zM304 -143q0 -53 -28 -77t-85 -24v34q30 2 43.5 11.5t13.5 33.5q-26 -5 -41.5 8t-15.5 36t14.5 36t38.5 13q25 0 42.5 -19.5t17.5 -51.5z" />
    <glyph glyph-name="kgreenlandic" unicode="&#x138;" horiz-adv-x="451" 
d="M237 247l209 -247h-96l-172 212h-27v-212h-76v462h75v-190h22l165 190h94z" />
    <glyph glyph-name="Lacute" unicode="&#x139;" horiz-adv-x="457" 
d="M85 589h78v-521h274v-68h-352v589zM167 655h-69l62 116h104z" />
    <glyph glyph-name="lacute" unicode="&#x13a;" horiz-adv-x="252" 
d="M217 62v-63q-28 -6 -49 -6q-43 0 -70.5 24t-27.5 70v581h76v-569q0 -42 40 -42q14 0 31 5zM141 716h-69l62 116h104z" />
    <glyph glyph-name="Lcommaaccent" unicode="&#x13b;" horiz-adv-x="457" 
d="M85 589h78v-521h274v-68h-352v589zM327 -143q0 -53 -28 -77t-85 -24v34q30 2 43.5 11.5t13.5 33.5q-26 -5 -41.5 8t-15.5 36t14.5 36t38.5 13q25 0 42.5 -19.5t17.5 -51.5z" />
    <glyph glyph-name="lcommaaccent" unicode="&#x13c;" horiz-adv-x="252" 
d="M217 62v-63q-28 -6 -49 -6q-43 0 -70.5 24t-27.5 70v581h76v-569q0 -42 40 -42q14 0 31 5zM203 -143q0 -53 -28 -77t-85 -24v34q30 2 43.5 11.5t13.5 33.5q-26 -5 -41.5 8t-15.5 36t14.5 36t38.5 13q25 0 42.5 -19.5t17.5 -51.5z" />
    <glyph glyph-name="Lcaron" unicode="&#x13d;" horiz-adv-x="457" 
d="M85 589h78v-521h274v-68h-352v589zM398 611l-51 -175h-55l16 175h90z" />
    <glyph glyph-name="lcaron" unicode="&#x13e;" horiz-adv-x="252" 
d="M314 668l-51 -175h-55l16 175h90zM217 62v-63q-28 -6 -49 -6q-43 0 -70.5 24t-27.5 70v581h76v-569q0 -42 40 -42q14 0 31 5z" />
    <glyph glyph-name="Ldot" unicode="&#x13f;" horiz-adv-x="457" 
d="M85 589h78v-521h274v-68h-352v589zM260 308q0 26 18 44t44 18t44 -18t18 -44t-18 -44t-44 -18t-44 18t-18 44z" />
    <glyph glyph-name="ldot" unicode="&#x140;" horiz-adv-x="305" 
d="M217 62v-63q-28 -6 -49 -6q-43 0 -70.5 24t-27.5 70v581h76v-569q0 -42 40 -42q14 0 31 5zM200 316q0 26 18 44t44 18t44 -18t18 -44t-18 -44t-44 -18t-44 18t-18 44z" />
    <glyph glyph-name="Lslash" unicode="&#x141;" horiz-adv-x="462" 
d="M30 219v65l60 22v283h78v-254l145 55v-69l-145 -53v-200h274v-68h-352v240z" />
    <glyph glyph-name="lslash" unicode="&#x142;" horiz-adv-x="259" 
d="M20 279v68l57 30v291h76v-250l71 38v-72l-71 -37v-248q0 -42 40 -42q14 0 31 5v-63q-28 -6 -49 -6q-43 0 -70.5 24t-27.5 70v221z" />
    <glyph glyph-name="Nacute" unicode="&#x143;" horiz-adv-x="642" 
d="M168 589l240 -355q16 -24 34 -54.5t28 -49.5l10 -18h4q-5 67 -5 141v336h78v-589h-81l-243 355q-16 24 -34 54.5t-28 48.5l-10 19h-4q6 -67 6 -141v-336h-78v589h83zM354 655h-69l62 116h104z" />
    <glyph glyph-name="nacute" unicode="&#x144;" 
d="M132 462l9 -89q36 100 148 100q63 0 102.5 -35.5t39.5 -106.5v-331h-76v312q0 45 -22.5 70t-64.5 25q-52 0 -84.5 -32t-32.5 -106v-269h-76v462h57zM285 530h-65l75 143h105z" />
    <glyph glyph-name="Ncommaaccent" unicode="&#x145;" horiz-adv-x="642" 
d="M168 589l240 -355q16 -24 34 -54.5t28 -49.5l10 -18h4q-5 67 -5 141v336h78v-589h-81l-243 355q-16 24 -34 54.5t-28 48.5l-10 19h-4q6 -67 6 -141v-336h-78v589h83zM387 -143q0 -53 -28 -77t-85 -24v34q30 2 43.5 11.5t13.5 33.5q-26 -5 -41.5 8t-15.5 36t14.5 36
t38.5 13q25 0 42.5 -19.5t17.5 -51.5z" />
    <glyph glyph-name="ncommaaccent" unicode="&#x146;" 
d="M132 462l9 -89q36 100 148 100q63 0 102.5 -35.5t39.5 -106.5v-331h-76v312q0 45 -22.5 70t-64.5 25q-52 0 -84.5 -32t-32.5 -106v-269h-76v462h57zM315 -143q0 -53 -28 -77t-85 -24v34q30 2 43.5 11.5t13.5 33.5q-26 -5 -41.5 8t-15.5 36t14.5 36t38.5 13
q25 0 42.5 -19.5t17.5 -51.5z" />
    <glyph glyph-name="Ncaron" unicode="&#x147;" horiz-adv-x="642" 
d="M168 589l240 -355q16 -24 34 -54.5t28 -49.5l10 -18h4q-5 67 -5 141v336h78v-589h-81l-243 355q-16 24 -34 54.5t-28 48.5l-10 19h-4q6 -67 6 -141v-336h-78v589h83zM344 650h-46l-121 124h87l32 -34q8 -9 14 -18t8 -13l2 -4h2q5 14 24 35l32 34h87z" />
    <glyph glyph-name="ncaron" unicode="&#x148;" 
d="M132 462l9 -89q36 100 148 100q63 0 102.5 -35.5t39.5 -106.5v-331h-76v312q0 45 -22.5 70t-64.5 25q-52 0 -84.5 -32t-32.5 -106v-269h-76v462h57zM278 530h-42l-122 143h81l36 -46q8 -11 14 -21t8 -14l2 -5h4q5 16 24 40l36 46h81z" />
    <glyph glyph-name="Eng" unicode="&#x14a;" horiz-adv-x="642" 
d="M557 589v-617q0 -96 -51.5 -139.5t-134.5 -43.5q-80 0 -139 59l47 56q47 -49 101 -49q57 0 78 35t21 102v3l-246 360q-16 24 -34 54.5t-28 48.5l-10 19h-4q6 -67 6 -141v-336h-78v589h83l240 -355q16 -24 34 -54.5t28 -49.5l10 -18h4q-5 67 -5 141v336h78z" />
    <glyph glyph-name="eng" unicode="&#x14b;" 
d="M151 0h-76v462h57l9 -89q36 100 148 100q63 0 102.5 -35.5t39.5 -106.5v-342q0 -109 -51 -152t-155 -40v64q68 -5 99 23t31 92v336q0 45 -22.5 70t-64.5 25q-52 0 -84.5 -32t-32.5 -106v-269z" />
    <glyph glyph-name="Omacron" unicode="&#x14c;" horiz-adv-x="612" 
d="M306 -12q-120 0 -190.5 80.5t-70.5 225.5q0 146 70.5 226.5t190.5 80.5t190.5 -80.5t70.5 -226.5q0 -145 -70.5 -225.5t-190.5 -80.5zM306 533q-87 0 -133 -63t-46 -176t46 -176t133 -63t133 63t46 176t-46 176t-133 63zM432 677h-251v59h251v-59z" />
    <glyph glyph-name="omacron" unicode="&#x14d;" horiz-adv-x="502" 
d="M251 -12q-95 0 -150.5 64.5t-55.5 181.5q0 116 55 177.5t151 61.5t151 -61.5t55 -177.5q0 -117 -55.5 -181.5t-150.5 -64.5zM251 411q-131 0 -131 -177q0 -186 131 -186t131 186q0 177 -131 177zM377 564h-251v61h251v-61z" />
    <glyph glyph-name="Obreve" unicode="&#x14e;" horiz-adv-x="612" 
d="M306 -12q-120 0 -190.5 80.5t-70.5 225.5q0 146 70.5 226.5t190.5 80.5t190.5 -80.5t70.5 -226.5q0 -145 -70.5 -225.5t-190.5 -80.5zM306 533q-87 0 -133 -63t-46 -176t46 -176t133 -63t133 63t46 176t-46 176t-133 63zM306 652q-60 0 -95 34t-35 92h61q6 -69 69 -69
q64 0 70 69h61q0 -58 -35 -92t-96 -34z" />
    <glyph glyph-name="obreve" unicode="&#x14f;" horiz-adv-x="502" 
d="M251 -12q-95 0 -150.5 64.5t-55.5 181.5q0 116 55 177.5t151 61.5t151 -61.5t55 -177.5q0 -117 -55.5 -181.5t-150.5 -64.5zM251 411q-131 0 -131 -177q0 -186 131 -186t131 186q0 177 -131 177zM251 528q-61 0 -96 36.5t-35 99.5h61q3 -39 18 -58.5t52 -19.5t52 19.5
t18 58.5h61q0 -63 -35 -99.5t-96 -36.5z" />
    <glyph glyph-name="Ohungarumlaut" unicode="&#x150;" horiz-adv-x="612" 
d="M306 -12q-120 0 -190.5 80.5t-70.5 225.5q0 146 70.5 226.5t190.5 80.5t190.5 -80.5t70.5 -226.5q0 -145 -70.5 -225.5t-190.5 -80.5zM306 533q-87 0 -133 -63t-46 -176t46 -176t133 -63t133 63t46 176t-46 176t-133 63zM259 655h-58l65 116h98zM401 655h-60l75 116h100z
" />
    <glyph glyph-name="ohungarumlaut" unicode="&#x151;" horiz-adv-x="502" 
d="M251 -12q-95 0 -150.5 64.5t-55.5 181.5q0 116 55 177.5t151 61.5t151 -61.5t55 -177.5q0 -117 -55.5 -181.5t-150.5 -64.5zM251 411q-131 0 -131 -177q0 -186 131 -186t131 186q0 177 -131 177zM204 530h-58l65 143h98zM346 530h-60l75 143h100z" />
    <glyph glyph-name="OE" unicode="&#x152;" horiz-adv-x="835" 
d="M306 -12q-120 0 -190.5 80.5t-70.5 225.5q0 146 70.5 226.5t190.5 80.5q45 0 84 -12h395v-68h-289q60 -69 69 -193h189v-68h-189q-9 -125 -69 -192h289v-68h-395q-39 -12 -84 -12zM306 533q-86 0 -131 -62.5t-45 -176.5t45 -176.5t131 -62.5t131 62.5t45 176.5t-45 176.5
t-131 62.5z" />
    <glyph glyph-name="oe" unicode="&#x153;" horiz-adv-x="813" 
d="M589 48q86 0 108 80l67 -15q-23 -125 -181 -125q-125 0 -165 100q-37 -100 -167 -100q-95 0 -150.5 64.5t-55.5 181.5q0 116 55 177.5t151 61.5q61 0 106.5 -24.5t62.5 -75.5q21 48 66.5 74t102.5 26q85 0 132 -53.5t47 -141.5q0 -42 -9 -64h-303q4 -75 38.5 -120.5
t94.5 -45.5zM251 411q-131 0 -131 -177q0 -186 131 -186t131 186q0 177 -131 177zM458 275h235q1 8 1 21q0 49 -30.5 82.5t-79.5 33.5q-53 0 -86 -35t-40 -102z" />
    <glyph glyph-name="Racute" unicode="&#x154;" horiz-adv-x="539" 
d="M502 0h-85q-17 21 -24 53l-25 107q-13 53 -41 71.5t-79 18.5h-85v-250h-78v589h195q196 0 196 -164q0 -67 -40 -105.5t-98 -40.5v-2q43 -5 67.5 -27.5t36.5 -70.5l30 -118q9 -36 30 -61zM163 524v-210h115q116 0 116 106q0 104 -116 104h-115zM289 655h-69l62 116h104z
" />
    <glyph glyph-name="racute" unicode="&#x155;" horiz-adv-x="343" 
d="M323 472l-4 -86q-13 3 -37 3q-54 0 -92.5 -41.5t-38.5 -106.5v-241h-76v462h63l9 -124q14 64 59.5 100.5t116.5 33.5zM225 530h-65l75 143h105z" />
    <glyph glyph-name="Rcommaaccent" unicode="&#x156;" horiz-adv-x="539" 
d="M502 0h-85q-17 21 -24 53l-25 107q-13 53 -41 71.5t-79 18.5h-85v-250h-78v589h195q196 0 196 -164q0 -67 -40 -105.5t-98 -40.5v-2q43 -5 67.5 -27.5t36.5 -70.5l30 -118q9 -36 30 -61zM163 524v-210h115q116 0 116 106q0 104 -116 104h-115zM322 -143q0 -53 -28 -77
t-85 -24v34q30 2 43.5 11.5t13.5 33.5q-26 -5 -41.5 8t-15.5 36t14.5 36t38.5 13q25 0 42.5 -19.5t17.5 -51.5z" />
    <glyph glyph-name="rcommaaccent" unicode="&#x157;" horiz-adv-x="343" 
d="M323 472l-4 -86q-13 3 -37 3q-54 0 -92.5 -41.5t-38.5 -106.5v-241h-76v462h63l9 -124q14 64 59.5 100.5t116.5 33.5zM170 -143q0 -53 -28 -77t-85 -24v34q30 2 43.5 11.5t13.5 33.5q-26 -5 -41.5 8t-15.5 36t14.5 36t38.5 13q25 0 42.5 -19.5t17.5 -51.5z" />
    <glyph glyph-name="Rcaron" unicode="&#x158;" horiz-adv-x="539" 
d="M502 0h-85q-17 21 -24 53l-25 107q-13 53 -41 71.5t-79 18.5h-85v-250h-78v589h195q196 0 196 -164q0 -67 -40 -105.5t-98 -40.5v-2q43 -5 67.5 -27.5t36.5 -70.5l30 -118q9 -36 30 -61zM163 524v-210h115q116 0 116 106q0 104 -116 104h-115zM279 650h-46l-121 124h87
l32 -34q8 -9 14 -18t8 -13l2 -4h2q5 14 24 35l32 34h87z" />
    <glyph glyph-name="rcaron" unicode="&#x159;" horiz-adv-x="343" 
d="M323 472l-4 -86q-13 3 -37 3q-54 0 -92.5 -41.5t-38.5 -106.5v-241h-76v462h63l9 -124q14 64 59.5 100.5t116.5 33.5zM210 530h-42l-122 143h81l36 -46q8 -11 14 -21t8 -14l2 -5h4q5 16 24 40l36 46h81z" />
    <glyph glyph-name="Sacute" unicode="&#x15a;" horiz-adv-x="465" 
d="M30 144l74 13q17 -109 127 -109q53 0 84 24t31 69q0 43 -27 68.5t-103 54.5q-26 10 -39.5 15.5t-36.5 17t-36 23.5t-27 29.5t-20 40t-6 49.5q0 83 53 123t128 40q83 0 134.5 -37.5t57.5 -118.5l-76 -12q-4 51 -35 79t-80 28q-47 0 -76 -25.5t-29 -69.5q0 -24 8 -41
t30 -31.5t40.5 -22.5t59.5 -24q38 -15 60 -26t48 -31.5t38.5 -49.5t12.5 -68q0 -80 -55.5 -122t-141.5 -42q-176 0 -198 156zM272 655h-69l62 116h104z" />
    <glyph glyph-name="sacute" unicode="&#x15b;" horiz-adv-x="411" 
d="M30 103l70 17q9 -78 104 -78q46 0 73.5 17.5t27.5 52.5q0 32 -16.5 50.5t-59.5 29.5l-68 16q-62 15 -88.5 46.5t-26.5 82.5q0 70 48 103t120 33q147 0 161 -123l-75 -8q-4 73 -91 73q-43 0 -67 -18.5t-24 -51.5q0 -29 14.5 -46t54.5 -26l63 -16q63 -16 94.5 -46.5
t31.5 -89.5q0 -69 -47.5 -101t-126.5 -32q-78 0 -120.5 27t-51.5 88zM247 530h-65l75 143h105z" />
    <glyph glyph-name="Scircumflex" unicode="&#x15c;" horiz-adv-x="465" 
d="M30 144l74 13q17 -109 127 -109q53 0 84 24t31 69q0 43 -27 68.5t-103 54.5q-26 10 -39.5 15.5t-36.5 17t-36 23.5t-27 29.5t-20 40t-6 49.5q0 83 53 123t128 40q83 0 134.5 -37.5t57.5 -118.5l-76 -12q-4 51 -35 79t-80 28q-47 0 -76 -25.5t-29 -69.5q0 -24 8 -41
t30 -31.5t40.5 -22.5t59.5 -24q38 -15 60 -26t48 -31.5t38.5 -49.5t12.5 -68q0 -80 -55.5 -122t-141.5 -42q-176 0 -198 156zM216 779h46l121 -124h-87l-32 34q-8 9 -14 18t-8 13l-2 4h-2q-5 -14 -24 -35l-32 -34h-87z" />
    <glyph glyph-name="scircumflex" unicode="&#x15d;" horiz-adv-x="411" 
d="M30 103l70 17q9 -78 104 -78q46 0 73.5 17.5t27.5 52.5q0 32 -16.5 50.5t-59.5 29.5l-68 16q-62 15 -88.5 46.5t-26.5 82.5q0 70 48 103t120 33q147 0 161 -123l-75 -8q-4 73 -91 73q-43 0 -67 -18.5t-24 -51.5q0 -29 14.5 -46t54.5 -26l63 -16q63 -16 94.5 -46.5
t31.5 -89.5q0 -69 -47.5 -101t-126.5 -32q-78 0 -120.5 27t-51.5 88zM200 673h42l122 -143h-81l-36 44q-8 11 -14 21t-8 15l-2 4h-4q-5 -16 -24 -40l-36 -44h-81z" />
    <glyph glyph-name="Scedilla" unicode="&#x15e;" horiz-adv-x="465" 
d="M332 -126q0 -42 -28.5 -63.5t-72.5 -21.5q-57 0 -85 38l23 48q25 -37 62 -37q38 0 38 36q0 44 -70 44l5 71q-78 5 -121 42.5t-53 112.5l74 13q17 -109 127 -109q53 0 84 24t31 69q0 43 -27 68.5t-103 54.5q-26 10 -39.5 15.5t-36.5 17t-36 23.5t-27 29.5t-20 40t-6 49.5
q0 83 53 123t128 40q83 0 134.5 -37.5t57.5 -118.5l-76 -12q-4 51 -35 79t-80 28q-47 0 -76 -25.5t-29 -69.5q0 -24 8 -41t30 -31.5t40.5 -22.5t59.5 -24q38 -15 60 -26t48 -31.5t38.5 -49.5t12.5 -68q0 -76 -50 -117.5t-129 -45.5l-2 -31q88 -8 88 -84z" />
    <glyph glyph-name="scedilla" unicode="&#x15f;" horiz-adv-x="411" 
d="M304 -126q0 -42 -28.5 -63.5t-72.5 -21.5q-57 0 -85 38l23 48q25 -37 62 -37q38 0 38 36q0 44 -70 44l5 71q-66 5 -102 31.5t-44 82.5l70 17q9 -78 104 -78q46 0 73.5 17.5t27.5 52.5q0 32 -16.5 50.5t-59.5 29.5l-68 16q-62 15 -88.5 46.5t-26.5 82.5q0 70 48 103
t120 33q147 0 161 -123l-75 -8q-4 73 -91 73q-43 0 -67 -18.5t-24 -51.5q0 -29 14.5 -46t54.5 -26l63 -16q63 -16 94.5 -46.5t31.5 -89.5q0 -125 -158 -132l-2 -31q88 -8 88 -84z" />
    <glyph glyph-name="Scaron" unicode="&#x160;" horiz-adv-x="465" 
d="M30 144l74 13q17 -109 127 -109q53 0 84 24t31 69q0 43 -27 68.5t-103 54.5q-26 10 -39.5 15.5t-36.5 17t-36 23.5t-27 29.5t-20 40t-6 49.5q0 83 53 123t128 40q83 0 134.5 -37.5t57.5 -118.5l-76 -12q-4 51 -35 79t-80 28q-47 0 -76 -25.5t-29 -69.5q0 -24 8 -41
t30 -31.5t40.5 -22.5t59.5 -24q38 -15 60 -26t48 -31.5t38.5 -49.5t12.5 -68q0 -80 -55.5 -122t-141.5 -42q-176 0 -198 156zM262 650h-46l-121 124h87l32 -34q8 -9 14 -18t8 -13l2 -4h2q5 14 24 35l32 34h87z" />
    <glyph glyph-name="scaron" unicode="&#x161;" horiz-adv-x="411" 
d="M30 103l70 17q9 -78 104 -78q46 0 73.5 17.5t27.5 52.5q0 32 -16.5 50.5t-59.5 29.5l-68 16q-62 15 -88.5 46.5t-26.5 82.5q0 70 48 103t120 33q147 0 161 -123l-75 -8q-4 73 -91 73q-43 0 -67 -18.5t-24 -51.5q0 -29 14.5 -46t54.5 -26l63 -16q63 -16 94.5 -46.5
t31.5 -89.5q0 -69 -47.5 -101t-126.5 -32q-78 0 -120.5 27t-51.5 88zM234 530h-42l-122 143h81l36 -46q8 -11 14 -21t8 -14l2 -5h4q5 16 24 40l36 46h81z" />
    <glyph glyph-name="Tcommaaccent" unicode="&#x162;" horiz-adv-x="449" 
d="M263 0h-78v521h-175v68h429v-68h-176v-521zM279 -143q0 -53 -28 -77t-85 -24v34q30 2 43.5 11.5t13.5 33.5q-26 -5 -41.5 8t-15.5 36t14.5 36t38.5 13q25 0 42.5 -19.5t17.5 -51.5z" />
    <glyph glyph-name="tcommaaccent" unicode="&#x163;" horiz-adv-x="321" 
d="M291 77l15 -63q-41 -26 -102 -26t-94 32t-33 92v289h-67v61h67v98l77 10v-108h137v-61h-138v-275q0 -73 62 -73q39 0 76 24zM244 -143q0 -53 -28 -77t-85 -24v34q30 2 43.5 11.5t13.5 33.5q-26 -5 -41.5 8t-15.5 36t14.5 36t38.5 13q25 0 42.5 -19.5t17.5 -51.5z" />
    <glyph glyph-name="Tcaron" unicode="&#x164;" horiz-adv-x="449" 
d="M263 0h-78v521h-175v68h429v-68h-176v-521zM247 650h-46l-121 124h87l32 -34q8 -9 14 -18t8 -13l2 -4h2q5 14 24 35l32 34h87z" />
    <glyph glyph-name="tcaron" unicode="&#x165;" horiz-adv-x="321" 
d="M291 77l15 -63q-41 -26 -102 -26t-94 32t-33 92v289h-67v61h67v98l77 10v-108h137v-61h-138v-275q0 -73 62 -73q39 0 76 24zM307 688l-51 -175h-55l16 175h90z" />
    <glyph glyph-name="Tbar" unicode="&#x166;" horiz-adv-x="449" 
d="M263 0h-78v263h-115v65h115v193h-175v68h429v-68h-176v-193h118v-65h-118v-263z" />
    <glyph glyph-name="tbar" unicode="&#x167;" horiz-adv-x="321" 
d="M10 247v60h67v94h-67v61h67v98l77 10v-108h137v-61h-138v-94h138v-60h-138v-121q0 -73 62 -73q39 0 76 24l15 -63q-41 -26 -102 -26t-94 32t-33 92v135h-67z" />
    <glyph glyph-name="Utilde" unicode="&#x168;" horiz-adv-x="573" 
d="M430 589h78v-397q0 -55 -19 -96t-51.5 -63.5t-70.5 -33.5t-81 -11t-81 11t-70.5 33.5t-51 63.5t-18.5 96v397h78v-378q0 -159 143 -159q144 0 144 156v381zM354 655q-27 0 -71 24q-4 2 -14 8t-13.5 7.5t-10 4.5t-12 4t-11.5 1q-36 0 -30 -47h-48q-17 46 3.5 81t65.5 35
q36 0 83 -28q36 -22 53 -22q32 0 29 50h51q15 -51 -5 -84.5t-70 -33.5z" />
    <glyph glyph-name="utilde" unicode="&#x169;" 
d="M361 0l-9 83q-33 -95 -142 -95q-140 0 -140 154v320h76v-313q0 -55 21.5 -80t67.5 -25q43 0 79 37t36 100v281h76v-462h-65zM316 531q-27 0 -71 24q-4 2 -14 8t-13.5 7.5t-10 4.5t-12 4t-11.5 1q-36 0 -30 -47h-48q-17 46 3.5 79.5t65.5 33.5q36 0 83 -28q36 -22 53 -22
q32 0 29 50h51q15 -51 -5 -83t-70 -32z" />
    <glyph glyph-name="Umacron" unicode="&#x16a;" horiz-adv-x="573" 
d="M430 589h78v-397q0 -55 -19 -96t-51.5 -63.5t-70.5 -33.5t-81 -11t-81 11t-70.5 33.5t-51 63.5t-18.5 96v397h78v-378q0 -159 143 -159q144 0 144 156v381zM412 677h-251v59h251v-59z" />
    <glyph glyph-name="umacron" unicode="&#x16b;" 
d="M361 0l-9 83q-33 -95 -142 -95q-140 0 -140 154v320h76v-313q0 -55 21.5 -80t67.5 -25q43 0 79 37t36 100v281h76v-462h-65zM374 564h-251v61h251v-61z" />
    <glyph glyph-name="Ubreve" unicode="&#x16c;" horiz-adv-x="573" 
d="M430 589h78v-397q0 -55 -19 -96t-51.5 -63.5t-70.5 -33.5t-81 -11t-81 11t-70.5 33.5t-51 63.5t-18.5 96v397h78v-378q0 -159 143 -159q144 0 144 156v381zM286 652q-60 0 -95 34t-35 92h61q6 -69 69 -69q64 0 70 69h61q0 -58 -35 -92t-96 -34z" />
    <glyph glyph-name="ubreve" unicode="&#x16d;" 
d="M361 0l-9 83q-33 -95 -142 -95q-140 0 -140 154v320h76v-313q0 -55 21.5 -80t67.5 -25q43 0 79 37t36 100v281h76v-462h-65zM248 528q-61 0 -96 36.5t-35 99.5h61q3 -39 18 -58.5t52 -19.5t52 19.5t18 58.5h61q0 -63 -35 -99.5t-96 -36.5z" />
    <glyph glyph-name="Uring" unicode="&#x16e;" horiz-adv-x="573" 
d="M430 589h78v-397q0 -55 -19 -96t-51.5 -63.5t-70.5 -33.5t-81 -11t-81 11t-70.5 33.5t-51 63.5t-18.5 96v397h78v-378q0 -159 143 -159q144 0 144 156v381zM295 637q-46 0 -72.5 27t-26.5 69q0 39 27.5 66t71.5 27t71.5 -27t27.5 -66q0 -42 -26.5 -69t-72.5 -27zM295 790
q-26 0 -41.5 -16.5t-15.5 -42.5q0 -25 15 -40t42 -15t42 15t15 40q0 26 -15.5 42.5t-41.5 16.5z" />
    <glyph glyph-name="uring" unicode="&#x16f;" 
d="M361 0l-9 83q-33 -95 -142 -95q-140 0 -140 154v320h76v-313q0 -55 21.5 -80t67.5 -25q43 0 79 37t36 100v281h76v-462h-65zM249 524q-46 0 -72.5 27t-26.5 69q0 39 27.5 66t71.5 27t71.5 -27t27.5 -66q0 -42 -26.5 -69t-72.5 -27zM249 677q-26 0 -41.5 -16.5
t-15.5 -42.5q0 -25 15 -40t42 -15t42 15t15 40q0 26 -15.5 42.5t-41.5 16.5z" />
    <glyph glyph-name="Uhungarumlaut" unicode="&#x170;" horiz-adv-x="573" 
d="M430 589h78v-397q0 -55 -19 -96t-51.5 -63.5t-70.5 -33.5t-81 -11t-81 11t-70.5 33.5t-51 63.5t-18.5 96v397h78v-378q0 -159 143 -159q144 0 144 156v381zM239 655h-58l65 116h98zM381 655h-60l75 116h100z" />
    <glyph glyph-name="uhungarumlaut" unicode="&#x171;" 
d="M361 0l-9 83q-33 -95 -142 -95q-140 0 -140 154v320h76v-313q0 -55 21.5 -80t67.5 -25q43 0 79 37t36 100v281h76v-462h-65zM201 530h-58l65 143h98zM343 530h-60l75 143h100z" />
    <glyph glyph-name="Uogonek" unicode="&#x172;" horiz-adv-x="573" 
d="M182 -109q0 62 50 102q-74 12 -120.5 61t-46.5 138v397h78v-378q0 -159 143 -159q144 0 144 156v381h78v-397q0 -96 -54 -145t-138 -57q-64 -28 -64 -89q0 -60 54 -60q47 0 71 46l29 -35q-32 -63 -112 -63q-52 0 -82 27t-30 75z" />
    <glyph glyph-name="uogonek" unicode="&#x173;" 
d="M244 -113q0 45 34 79t81 52l-7 70q-37 -100 -142 -100q-140 0 -140 154v320h76v-313q0 -54 21 -79.5t66 -25.5q44 0 80.5 39t36.5 103v276h76v-462q-45 -2 -78.5 -29.5t-33.5 -71.5q0 -58 49 -58q47 0 71 46l29 -35q-31 -63 -112 -63q-51 0 -79 26t-28 72z" />
    <glyph glyph-name="Wcircumflex" unicode="&#x174;" horiz-adv-x="810" 
d="M453 589l99 -384q11 -42 19 -81t11 -58l3 -18h4q8 63 32 156l101 385h78l-160 -589h-110l-97 366q-11 42 -17.5 80.5t-7.5 56.5l-1 18h-4q-4 -61 -28 -155l-95 -366h-110l-160 589h83l99 -382q11 -41 19 -81t11 -59l3 -19h4q7 65 32 158l104 383h88zM382 779h46l121 -124
h-87l-32 34q-8 9 -14 18t-8 13l-2 4h-2q-5 -14 -24 -35l-32 -34h-87z" />
    <glyph glyph-name="wcircumflex" unicode="&#x175;" horiz-adv-x="655" 
d="M369 462l71 -259q12 -41 19.5 -78.5t9.5 -54.5l2 -17h4q2 56 26 150l67 259h77l-127 -462h-91l-67 237q-12 41 -19.5 77t-9.5 52l-2 16h-4q-5 -52 -30 -145l-64 -237h-91l-130 462h79l68 -258q11 -41 19 -79t10 -55l2 -17h4q3 59 28 151l71 258h78zM306 673h42l122 -143
h-81l-36 44q-8 11 -14 21t-8 15l-2 4h-4q-5 -16 -24 -40l-36 -44h-81z" />
    <glyph glyph-name="Ycircumflex" unicode="&#x176;" horiz-adv-x="464" 
d="M98 589l101 -202q14 -28 24 -51t13 -32l2 -9h4q7 28 36 91l94 203h82l-177 -357v-232h-78v232l-189 357h88zM209 779h46l121 -124h-87l-32 34q-8 9 -14 18t-8 13l-2 4h-2q-5 -14 -24 -35l-32 -34h-87z" />
    <glyph glyph-name="ycircumflex" unicode="&#x177;" horiz-adv-x="426" 
d="M93 462l85 -268q13 -40 22.5 -76.5t12.5 -52.5l3 -16h4q9 53 36 144l81 269h79l-166 -499q-32 -96 -75 -133.5t-105 -37.5q-33 0 -63 11l5 63q29 -13 60 -13q39 0 63 26t46 94l-171 489h83zM199 673h42l122 -143h-81l-36 44q-8 11 -14 21t-8 15l-2 4h-4q-5 -16 -24 -40
l-36 -44h-81z" />
    <glyph glyph-name="Ydieresis" unicode="&#x178;" horiz-adv-x="464" 
d="M98 589l101 -202q14 -28 24 -51t13 -32l2 -9h4q7 28 36 91l94 203h82l-177 -357v-232h-78v232l-189 357h88zM83 710q0 22 16 38t38 16q23 0 38.5 -16t15.5 -38t-16 -38t-38 -16t-38 16t-16 38zM272 709q0 22 16 38t38 16t38 -15.5t16 -38.5q0 -22 -16 -38t-38 -16t-38 16
t-16 38z" />
    <glyph glyph-name="Zacute" unicode="&#x179;" horiz-adv-x="462" 
d="M439 538l-263 -396q-14 -22 -28 -40t-20 -26l-7 -7v-4q25 3 88 3h233v-68h-422v41l265 406q14 22 28 40t21 25l6 8v4q-25 -3 -88 -3h-218v68h405v-51zM264 655h-69l62 116h104z" />
    <glyph glyph-name="zacute" unicode="&#x17a;" horiz-adv-x="383" 
d="M353 410l-186 -272q-15 -22 -28.5 -40t-20.5 -26l-6 -7v-4q25 3 88 3h163v-64h-343v41l188 281q15 22 28.5 40l19.5 26l7 7v4q-25 -3 -88 -3h-144v66h322v-52zM223 530h-65l75 143h105z" />
    <glyph glyph-name="Zdotaccent" unicode="&#x17b;" horiz-adv-x="462" 
d="M439 538l-263 -396q-14 -22 -28 -40t-20 -26l-7 -7v-4q25 3 88 3h233v-68h-422v41l265 406q14 22 28 40t21 25l6 8v4q-25 -3 -88 -3h-218v68h405v-51zM177 725q0 23 15.5 39t37.5 16q23 0 39 -16t16 -39q0 -22 -16 -38t-39 -16q-22 0 -37.5 16t-15.5 38z" />
    <glyph glyph-name="zdotaccent" unicode="&#x17c;" horiz-adv-x="383" 
d="M353 410l-186 -272q-15 -22 -28.5 -40t-20.5 -26l-6 -7v-4q25 3 88 3h163v-64h-343v41l188 281q15 22 28.5 40l19.5 26l7 7v4q-25 -3 -88 -3h-144v66h322v-52zM143 612q0 23 15.5 39t37.5 16q23 0 39 -16t16 -39q0 -22 -16 -38t-39 -16q-22 0 -37.5 16t-15.5 38z" />
    <glyph glyph-name="Zcaron" unicode="&#x17d;" horiz-adv-x="462" 
d="M439 538l-263 -396q-14 -22 -28 -40t-20 -26l-7 -7v-4q25 3 88 3h233v-68h-422v41l265 406q14 22 28 40t21 25l6 8v4q-25 -3 -88 -3h-218v68h405v-51zM254 650h-46l-121 124h87l32 -34q8 -9 14 -18t8 -13l2 -4h2q5 14 24 35l32 34h87z" />
    <glyph glyph-name="zcaron" unicode="&#x17e;" horiz-adv-x="383" 
d="M353 410l-186 -272q-15 -22 -28.5 -40t-20.5 -26l-6 -7v-4q25 3 88 3h163v-64h-343v41l188 281q15 22 28.5 40l19.5 26l7 7v4q-25 -3 -88 -3h-144v66h322v-52zM218 530h-42l-122 143h81l36 -46q8 -11 14 -21t8 -14l2 -5h4q5 16 24 40l36 46h81z" />
    <glyph glyph-name="Schwa" unicode="&#x18f;" horiz-adv-x="565" 
d="M53 446q19 77 75.5 116t140.5 39q115 0 183 -80.5t68 -226.5t-68 -226t-184 -80q-107 0 -165 63.5t-58 178.5q0 34 6 75h390q-2 100 -49.5 164t-131.5 64q-110 0 -144 -112zM439 242h-315q-2 -16 -2 -32q0 -71 38.5 -116t105.5 -45q73 0 120 53t53 140z" />
    <glyph glyph-name="florin" unicode="&#x192;" horiz-adv-x="404" 
d="M35 -120l53 300h-68l12 68h68l18 98q25 148 160 148q39 0 70 -14t46 -36l-44 -56q-30 42 -80 42q-28 0 -48.5 -21t-27.5 -61l-18 -100h117l-11 -68h-118l-53 -300h-76z" />
    <glyph glyph-name="Khook" unicode="&#x198;" horiz-adv-x="522" 
d="M351 466l-73 -166l224 -300h-96l-191 260h-52v-260h-78v589h78v-258h55l65 154q25 60 58 88t82 28q62 0 81 -58l-48 -44q-13 32 -40 32q-20 0 -34.5 -14t-30.5 -51z" />
    <glyph glyph-name="khook" unicode="&#x199;" horiz-adv-x="451" 
d="M151 212v-212h-76v515q0 58 24.5 95t62.5 49t77.5 10.5t74.5 -15.5l-16 -68q-148 65 -148 -87v-227h22l165 190h94l-194 -215l209 -247h-96l-172 212h-27z" />
    <glyph glyph-name="Ezh" unicode="&#x1b7;" horiz-adv-x="451" 
d="M133 269l126 178l55 73v4q-25 -3 -88 -3h-205v68h392v-51l-204 -275v-5q100 -1 158.5 -59.5t58.5 -156.5q0 -104 -65 -163.5t-162 -59.5q-93 0 -149 48.5t-65 135.5l64 17q10 -71 49.5 -106.5t99.5 -35.5q71 0 113 44.5t42 119.5q0 84 -59 128t-161 42v57z" />
    <glyph glyph-name="Acaron" unicode="&#x1cd;" horiz-adv-x="554" 
d="M460 0l-61 174h-247l-61 -174h-81l215 589h106l213 -589h-84zM228 392l-54 -154h202l-53 153q-14 40 -25.5 78t-15.5 55l-4 18h-4q-14 -59 -46 -150zM298 650h-46l-121 124h87l32 -34q8 -9 14 -18t8 -13l2 -4h2q5 14 24 35l32 34h87z" />
    <glyph glyph-name="acaron" unicode="&#x1ce;" horiz-adv-x="472" 
d="M311 137v74q-100 2 -147.5 -20t-47.5 -70q0 -33 21 -53.5t60 -20.5q43 0 78.5 25t35.5 65zM387 334v-235q0 -43 35 -43q16 0 25 4v-61q-22 -6 -41 -6q-81 0 -90 75q-33 -80 -137 -80q-62 0 -100.5 33.5t-38.5 90.5q0 166 271 153v62q0 84 -93 84q-87 0 -93 -77l-70 10
q5 68 54.5 98.5t117.5 30.5q69 0 114.5 -32.5t45.5 -106.5zM250 530h-42l-122 143h81l36 -46q8 -11 14 -21t8 -14l2 -5h4q5 16 24 40l36 46h81z" />
    <glyph glyph-name="Icaron" unicode="&#x1cf;" horiz-adv-x="248" 
d="M85 589h78v-589h-78v589zM147 650h-46l-121 124h87l32 -34q8 -9 14 -18t8 -13l2 -4h2q5 14 24 35l32 34h87z" />
    <glyph glyph-name="icaron" unicode="&#x1d0;" horiz-adv-x="226" 
d="M134 530h-42l-122 143h81l36 -46q8 -11 14 -21t8 -14l2 -5h4q5 16 24 40l36 46h81zM75 462h76v-462h-76v462z" />
    <glyph glyph-name="Ocaron" unicode="&#x1d1;" horiz-adv-x="612" 
d="M306 -12q-120 0 -190.5 80.5t-70.5 225.5q0 146 70.5 226.5t190.5 80.5t190.5 -80.5t70.5 -226.5q0 -145 -70.5 -225.5t-190.5 -80.5zM306 533q-87 0 -133 -63t-46 -176t46 -176t133 -63t133 63t46 176t-46 176t-133 63zM329 650h-46l-121 124h87l32 -34q8 -9 14 -18
t8 -13l2 -4h2q5 14 24 35l32 34h87z" />
    <glyph glyph-name="ocaron" unicode="&#x1d2;" horiz-adv-x="502" 
d="M251 -12q-95 0 -150.5 64.5t-55.5 181.5q0 116 55 177.5t151 61.5t151 -61.5t55 -177.5q0 -117 -55.5 -181.5t-150.5 -64.5zM251 411q-131 0 -131 -177q0 -186 131 -186t131 186q0 177 -131 177zM272 530h-42l-122 143h81l36 -46q8 -11 14 -21t8 -14l2 -5h4q5 16 24 40
l36 46h81z" />
    <glyph glyph-name="Ucaron" unicode="&#x1d3;" horiz-adv-x="573" 
d="M430 589h78v-397q0 -55 -19 -96t-51.5 -63.5t-70.5 -33.5t-81 -11t-81 11t-70.5 33.5t-51 63.5t-18.5 96v397h78v-378q0 -159 143 -159q144 0 144 156v381zM309 650h-46l-121 124h87l32 -34q8 -9 14 -18t8 -13l2 -4h2q5 14 24 35l32 34h87z" />
    <glyph glyph-name="ucaron" unicode="&#x1d4;" 
d="M361 0l-9 83q-33 -95 -142 -95q-140 0 -140 154v320h76v-313q0 -55 21.5 -80t67.5 -25q43 0 79 37t36 100v281h76v-462h-65zM269 530h-42l-122 143h81l36 -46q8 -11 14 -21t8 -14l2 -5h4q5 16 24 40l36 46h81z" />
    <glyph glyph-name="uni01D9" unicode="&#x1d9;" horiz-adv-x="573" 
d="M309 750h-46l-121 124h87l32 -34q8 -9 14 -18t8 -13l2 -4h2q5 14 24 35l32 34h87zM430 589h78v-397q0 -55 -19 -96t-51.5 -63.5t-70.5 -33.5t-81 -11t-81 11t-70.5 33.5t-51 63.5t-18.5 96v397h78v-378q0 -159 143 -159q144 0 144 156v381zM137 680q0 22 16 38t38 16
q23 0 38.5 -16t15.5 -38t-16 -38t-38 -16t-38 16t-16 38zM326 679q0 22 16 38t38 16t38 -15.5t16 -38.5q0 -22 -16 -38t-38 -16t-38 16t-16 38z" />
    <glyph glyph-name="uni01DA" unicode="&#x1da;" 
d="M272 627h-46l-121 124h87l32 -34q8 -9 14 -18t8 -13l2 -4h2q5 14 24 35l32 34h87zM100 557q0 22 16 38t38 16t38 -15.5t16 -38.5q0 -22 -16 -38t-38 -16t-38 16t-16 38zM289 556q0 22 16 38t38 16q23 0 38.5 -16t15.5 -38t-16 -38t-38 -16t-38 16t-16 38zM361 0l-9 83
q-33 -95 -142 -95q-140 0 -140 154v320h76v-313q0 -55 21.5 -80t67.5 -25q43 0 79 37t36 100v281h76v-462h-65z" />
    <glyph glyph-name="uni004100A800AF" unicode="&#x1de;" horiz-adv-x="554" 
d="M460 0l-61 174h-247l-61 -174h-81l215 589h106l213 -589h-84zM228 392l-54 -154h202l-53 153q-14 40 -25.5 78t-15.5 55l-4 18h-4q-14 -59 -46 -150zM401 794h-251v59h251v-59zM128 690q0 22 16 38t38 16t38 -16t16 -38t-16 -38t-38 -16t-38 16t-16 38zM317 689
q0 22 16 38t38 16q23 0 38.5 -15.5t15.5 -38.5q0 -22 -16 -38t-38 -16t-38 16t-16 38z" />
    <glyph glyph-name="adieresismacron" unicode="&#x1df;" horiz-adv-x="472" 
d="M311 137v74q-100 2 -147.5 -20t-47.5 -70q0 -33 21 -53.5t60 -20.5q43 0 78.5 25t35.5 65zM387 334v-235q0 -43 35 -43q16 0 25 4v-61q-22 -6 -41 -6q-81 0 -90 75q-33 -80 -137 -80q-62 0 -100.5 33.5t-38.5 90.5q0 166 271 153v62q0 84 -93 84q-87 0 -93 -77l-70 10
q5 68 54.5 98.5t117.5 30.5q69 0 114.5 -32.5t45.5 -106.5zM355 656h-251v61h251v-61zM80 561q0 22 16 38t38 16t38 -15.5t16 -38.5q0 -22 -16 -38t-38 -16t-38 16t-16 38zM269 560q0 22 16 38t38 16q23 0 38.5 -16t15.5 -38t-16 -38t-38 -16t-38 16t-16 38z" />
    <glyph glyph-name="AEmacron" unicode="&#x1e2;" horiz-adv-x="818" 
d="M768 0h-352v174h-217l-106 -174h-83l364 589h394v-68h-274v-193h244v-68h-244v-192h274v-68zM418 532l-181 -294h179v148q0 44 1.5 80.5t2.5 51.5l2 14h-4zM660 677h-251v59h251v-59z" />
    <glyph glyph-name="aemacron" unicode="&#x1e3;" horiz-adv-x="721" 
d="M497 49q86 0 108 79l67 -15q-23 -125 -181 -125q-107 0 -160 82q-43 -82 -149 -82q-64 0 -103 33t-39 91q0 159 253 160q4 37 17 72q-10 67 -92 67q-87 0 -93 -77l-70 10q5 68 54.5 98.5t117.5 30.5q90 0 128 -56q54 56 142 56q85 0 131 -54t48 -145q0 -34 -6 -60h-304
q4 -76 37.5 -120.5t93.5 -44.5zM368 272h231q1 8 1 24q0 49 -29.5 82.5t-78.5 33.5q-53 0 -84.5 -36.5t-39.5 -103.5zM190 47q40 0 71 20.5t45 55.5q-13 39 -15 91q-96 -1 -135.5 -21.5t-39.5 -71.5q0 -32 20 -53t54 -21zM481 564h-251v61h251v-61z" />
    <glyph glyph-name="Gstroke" unicode="&#x1e4;" horiz-adv-x="624" 
d="M311 312h228v-114h60v-60h-60v-138h-69l-9 79q-16 -42 -62.5 -66.5t-99.5 -24.5q-116 0 -185 80t-69 224q0 145 74.5 227t196.5 82q160 0 215 -139l-71 -35q-19 53 -58.5 80.5t-91.5 27.5q-86 0 -133.5 -64.5t-47.5 -177.5q0 -111 44.5 -175.5t129.5 -64.5q128 0 156 85
h-148v60h150v49h-150v65z" />
    <glyph glyph-name="gstroke" unicode="&#x1e5;" horiz-adv-x="524" 
d="M254 473q85 0 134 -40q27 12 36 70l68 -24q-5 -33 -25 -54.5t-50 -27.5q22 -35 22 -88q0 -77 -52 -118.5t-131 -41.5q-40 0 -61 8q-35 -18 -35 -51q0 -42 54 -42h107q159 0 159 -126h44v-35h-48q-16 -61 -83 -87.5t-157 -26.5q-190 0 -198 114h-38v35h41q8 36 38.5 58
t76.5 26q-29 4 -45 22.5t-16 46.5q0 61 66 77q-88 40 -88 141q0 76 49.5 120t131.5 44zM147 310q0 -48 28.5 -76.5t78.5 -28.5q51 0 80.5 26.5t29.5 78.5t-29.5 79.5t-80.5 26.5t-79 -28t-28 -78zM224 -3q-100 0 -114 -59h295q-5 59 -85 59h-96zM240 -158q141 0 162 61h-293
q11 -61 131 -61z" />
    <glyph glyph-name="Gcaron" unicode="&#x1e6;" horiz-adv-x="604" 
d="M311 300h228v-300h-69l-9 79q-16 -42 -62.5 -66.5t-99.5 -24.5q-116 0 -185 80t-69 224q0 145 74.5 227t196.5 82q160 0 215 -139l-71 -35q-19 53 -58.5 80.5t-91.5 27.5q-86 0 -134.5 -64.5t-48.5 -177.5q0 -110 45 -175t131 -65q66 0 112 31.5t46 93.5v52h-150v70z
M339 650h-46l-121 124h87l32 -34q8 -9 14 -18t8 -13l2 -4h2q5 14 24 35l32 34h87z" />
    <glyph glyph-name="gcaron" unicode="&#x1e7;" horiz-adv-x="479" 
d="M226 473q85 0 134 -40q27 12 36 70l68 -24q-5 -33 -25 -54.5t-50 -27.5q22 -35 22 -88q0 -77 -52 -118.5t-131 -41.5q-40 0 -61 8q-35 -18 -35 -51q0 -42 54 -42h107q159 0 159 -126q0 -42 -21 -72.5t-57.5 -46.5t-77 -23t-88.5 -7q-198 0 -198 123q0 46 31.5 76t86.5 34
q-29 4 -45 22.5t-16 46.5q0 61 66 77q-88 40 -88 141q0 76 49.5 120t131.5 44zM83 -83q0 -73 131 -73q165 0 165 84q0 69 -86 69h-95q-115 0 -115 -80zM119 310q0 -48 28.5 -76.5t78.5 -28.5q51 0 80.5 26.5t29.5 78.5t-29.5 79.5t-80.5 26.5t-79 -28t-28 -78zM258 530h-42
l-122 143h81l36 -46q8 -11 14 -21t8 -14l2 -5h4q5 16 24 40l36 46h81z" />
    <glyph glyph-name="Kcaron" unicode="&#x1e8;" horiz-adv-x="522" 
d="M502 0h-96l-194 265h-49v-265h-78v589h78v-256h52l181 256h92l-211 -286zM274 650h-46l-121 124h87l32 -34q8 -9 14 -18t8 -13l2 -4h2q5 14 24 35l32 34h87z" />
    <glyph glyph-name="kcaron" unicode="&#x1e9;" horiz-adv-x="451" 
d="M237 247l209 -247h-96l-172 212h-27v-212h-76v668h76v-396h21l165 190h94zM136 709h-46l-121 124h87l32 -34q8 -9 14 -18t8 -13l2 -4h2q5 14 24 35l32 34h87z" />
    <glyph glyph-name="Oogonek" unicode="&#x1ea;" horiz-adv-x="612" 
d="M198 -109q0 62 51 102q-96 18 -150 96t-54 205q0 146 70.5 226.5t190.5 80.5t190.5 -80.5t70.5 -226.5q0 -137 -63 -216.5t-172 -87.5q-64 -28 -64 -89q0 -60 54 -60q47 0 71 46l29 -35q-32 -63 -112 -63q-52 0 -82 27t-30 75zM306 533q-87 0 -133 -63t-46 -176t46 -176
t133 -63t133 63t46 176t-46 176t-133 63z" />
    <glyph glyph-name="oogonek" unicode="&#x1eb;" horiz-adv-x="502" 
d="M137 -109q0 65 54 105q-69 18 -107.5 79.5t-38.5 158.5q0 116 55 177.5t151 61.5t151 -61.5t55 -177.5q0 -111 -50 -175t-137 -70q-63 -28 -63 -88t54 -60q47 0 71 46l29 -35q-31 -63 -112 -63q-52 0 -82 27t-30 75zM251 411q-131 0 -131 -177q0 -186 131 -186t131 186
q0 177 -131 177z" />
    <glyph glyph-name="uni004F02DB00AF" unicode="&#x1ec;" horiz-adv-x="612" 
d="M432 677h-251v59h251v-59zM198 -109q0 62 51 102q-96 18 -150 96t-54 205q0 146 70.5 226.5t190.5 80.5t190.5 -80.5t70.5 -226.5q0 -137 -63 -216.5t-172 -87.5q-64 -28 -64 -89q0 -60 54 -60q47 0 71 46l29 -35q-32 -63 -112 -63q-52 0 -82 27t-30 75zM306 533
q-87 0 -133 -63t-46 -176t46 -176t133 -63t133 63t46 176t-46 176t-133 63z" />
    <glyph glyph-name="oogonekmacron" unicode="&#x1ed;" horiz-adv-x="502" 
d="M377 564h-251v61h251v-61zM137 -109q0 65 54 105q-69 18 -107.5 79.5t-38.5 158.5q0 116 55 177.5t151 61.5t151 -61.5t55 -177.5q0 -111 -50 -175t-137 -70q-63 -28 -63 -88t54 -60q47 0 71 46l29 -35q-31 -63 -112 -63q-52 0 -82 27t-30 75zM251 411q-131 0 -131 -177
q0 -186 131 -186t131 186q0 177 -131 177z" />
    <glyph glyph-name="Ezhcaron" unicode="&#x1ee;" horiz-adv-x="451" 
d="M133 269l126 178l55 73v4q-25 -3 -88 -3h-205v68h392v-51l-204 -275v-5q100 -1 158.5 -59.5t58.5 -156.5q0 -104 -65 -163.5t-162 -59.5q-93 0 -149 48.5t-65 135.5l64 17q10 -71 49.5 -106.5t99.5 -35.5q71 0 113 44.5t42 119.5q0 84 -59 128t-161 42v57zM247 650h-46
l-121 124h87l32 -34q8 -9 14 -18t8 -13l2 -4h2q5 14 24 35l32 34h87z" />
    <glyph glyph-name="ezhcaron" unicode="&#x1ef;" horiz-adv-x="384" 
d="M111 210l91 112l64 73v4q-34 -3 -97 -3h-137v66h322v-52l-173 -212v-3q77 -1 123.5 -50.5t46.5 -125.5q0 -81 -55 -127t-138 -46q-69 0 -114.5 39t-53.5 101l66 15q8 -47 37 -71.5t71 -24.5q49 0 82.5 30.5t33.5 79.5q0 58 -41.5 96.5t-127.5 47.5v51zM216 530h-42
l-122 143h81l36 -46q8 -11 14 -21t8 -14l2 -5h4q5 16 24 40l36 46h81z" />
    <glyph glyph-name="jcaron" unicode="&#x1f0;" horiz-adv-x="226" 
d="M135 530h-42l-122 143h81l36 -46q8 -11 14 -21t8 -14l2 -5h4q5 16 24 40l36 46h81zM75 462h76v-473q0 -109 -51 -152t-155 -40v64q68 -5 99 23.5t31 92.5v485z" />
    <glyph glyph-name="jcaron" unicode="&#xe10c;" horiz-adv-x="226" 
d="M135 530h-42l-122 143h81l36 -46q8 -11 14 -21t8 -14l2 -5h4q5 16 24 40l36 46h81zM75 462h76v-473q0 -109 -51 -152t-155 -40v64q68 -5 99 23.5t31 92.5v485z" />
    <glyph glyph-name="Gacute" unicode="&#x1f4;" horiz-adv-x="604" 
d="M311 300h228v-300h-69l-9 79q-16 -42 -62.5 -66.5t-99.5 -24.5q-116 0 -185 80t-69 224q0 145 74.5 227t196.5 82q160 0 215 -139l-71 -35q-19 53 -58.5 80.5t-91.5 27.5q-86 0 -134.5 -64.5t-48.5 -177.5q0 -110 45 -175t131 -65q66 0 112 31.5t46 93.5v52h-150v70z
M349 655h-69l62 116h104z" />
    <glyph glyph-name="gacute" unicode="&#x1f5;" horiz-adv-x="479" 
d="M226 473q85 0 134 -40q27 12 36 70l68 -24q-5 -33 -25 -54.5t-50 -27.5q22 -35 22 -88q0 -77 -52 -118.5t-131 -41.5q-40 0 -61 8q-35 -18 -35 -51q0 -42 54 -42h107q159 0 159 -126q0 -42 -21 -72.5t-57.5 -46.5t-77 -23t-88.5 -7q-198 0 -198 123q0 46 31.5 76t86.5 34
q-29 4 -45 22.5t-16 46.5q0 61 66 77q-88 40 -88 141q0 76 49.5 120t131.5 44zM83 -83q0 -73 131 -73q165 0 165 84q0 69 -86 69h-95q-115 0 -115 -80zM119 310q0 -48 28.5 -76.5t78.5 -28.5q51 0 80.5 26.5t29.5 78.5t-29.5 79.5t-80.5 26.5t-79 -28t-28 -78zM263 530h-65
l75 143h105z" />
    <glyph glyph-name="Ngrave" unicode="&#x1f8;" horiz-adv-x="642" 
d="M168 589l240 -355q16 -24 34 -54.5t28 -49.5l10 -18h4q-5 67 -5 141v336h78v-589h-81l-243 355q-16 24 -34 54.5t-28 48.5l-10 19h-4q6 -67 6 -141v-336h-78v589h83zM359 655h-69l-97 116h104z" />
    <glyph glyph-name="ngrave" unicode="&#x1f9;" 
d="M132 462l9 -89q36 100 148 100q63 0 102.5 -35.5t39.5 -106.5v-331h-76v312q0 45 -22.5 70t-64.5 25q-52 0 -84.5 -32t-32.5 -106v-269h-76v462h57zM299 530h-65l-115 143h105z" />
    <glyph glyph-name="uni004102DA00B4" unicode="&#x1fa;" horiz-adv-x="554" 
d="M460 0l-61 174h-247l-61 -174h-81l215 589h106l213 -589h-84zM228 392l-54 -154h202l-53 153q-14 40 -25.5 78t-15.5 55l-4 18h-4q-14 -59 -46 -150zM276 621q-46 0 -72.5 27t-26.5 69q0 39 27.5 66t71.5 27t71.5 -27t27.5 -66q0 -42 -26.5 -69t-72.5 -27zM276 774
q-26 0 -41.5 -16.5t-15.5 -42.5q0 -25 15 -40t42 -15t42 15t15 40q0 26 -15.5 42.5t-41.5 16.5zM307 840h-69l62 116h104z" />
    <glyph glyph-name="aringacute" unicode="&#x1fb;" horiz-adv-x="472" 
d="M311 137v74q-100 2 -147.5 -20t-47.5 -70q0 -33 21 -53.5t60 -20.5q43 0 78.5 25t35.5 65zM387 334v-235q0 -43 35 -43q16 0 25 4v-61q-22 -6 -41 -6q-81 0 -90 75q-33 -80 -137 -80q-62 0 -100.5 33.5t-38.5 90.5q0 166 271 153v62q0 84 -93 84q-87 0 -93 -77l-70 10
q5 68 54.5 98.5t117.5 30.5q69 0 114.5 -32.5t45.5 -106.5zM225 510q-46 0 -72.5 27t-26.5 69q0 39 27.5 66t71.5 27t71.5 -27t27.5 -66q0 -42 -26.5 -69t-72.5 -27zM225 663q-26 0 -41.5 -16.5t-15.5 -42.5q0 -25 15 -40t42 -15t42 15t15 40q0 26 -15.5 42.5t-41.5 16.5z
M264 736h-69l62 116h104z" />
    <glyph glyph-name="AEacute" unicode="&#x1fc;" horiz-adv-x="818" 
d="M768 0h-352v174h-217l-106 -174h-83l364 589h394v-68h-274v-193h244v-68h-244v-192h274v-68zM418 532l-181 -294h179v148q0 44 1.5 80.5t2.5 51.5l2 14h-4zM567 655h-69l62 116h104z" />
    <glyph glyph-name="aeacute" unicode="&#x1fd;" horiz-adv-x="721" 
d="M497 49q86 0 108 79l67 -15q-23 -125 -181 -125q-107 0 -160 82q-43 -82 -149 -82q-64 0 -103 33t-39 91q0 159 253 160q4 37 17 72q-10 67 -92 67q-87 0 -93 -77l-70 10q5 68 54.5 98.5t117.5 30.5q90 0 128 -56q54 56 142 56q85 0 131 -54t48 -145q0 -34 -6 -60h-304
q4 -76 37.5 -120.5t93.5 -44.5zM368 272h231q1 8 1 24q0 49 -29.5 82.5t-78.5 33.5q-53 0 -84.5 -36.5t-39.5 -103.5zM190 47q40 0 71 20.5t45 55.5q-13 39 -15 91q-96 -1 -135.5 -21.5t-39.5 -71.5q0 -32 20 -53t54 -21zM381 530h-65l75 143h105z" />
    <glyph glyph-name="Oslashacute" unicode="&#x1fe;" horiz-adv-x="612" 
d="M69 -14l-42 40l66 73q-48 77 -48 195q0 146 70.5 226.5t190.5 80.5q110 0 177 -67l57 63l45 -41l-64 -71q46 -75 46 -191q0 -145 -70.5 -225.5t-190.5 -80.5q-109 0 -176 65zM306 533q-86 0 -131 -62.5t-45 -176.5q0 -76 20 -131l282 314q-45 56 -126 56zM482 294
q0 76 -19 127l-282 -312q45 -54 125 -54q86 0 131 62.5t45 176.5zM339 655h-69l62 116h104z" />
    <glyph glyph-name="oslashacute" unicode="&#x1ff;" horiz-adv-x="502" 
d="M69 -14l-45 38l55 59q-34 60 -34 151q0 116 55 177.5t151 61.5q87 0 142 -53l48 52l45 -38l-58 -62q29 -56 29 -138q0 -117 -55.5 -181.5t-150.5 -64.5q-84 0 -135 48zM251 411q-131 0 -131 -177q0 -55 12 -94l214 230q-32 41 -95 41zM382 234q0 44 -9 79l-212 -228
q31 -37 90 -37q131 0 131 186zM286 530h-65l75 143h105z" />
    <glyph glyph-name="Adoublegrave" unicode="&#x200;" horiz-adv-x="554" 
d="M460 0l-61 174h-247l-61 -174h-81l215 589h106l213 -589h-84zM228 392l-54 -154h202l-53 153q-14 40 -25.5 78t-15.5 55l-4 18h-4q-14 -59 -46 -150zM385 655h-58l-105 116h98zM245 655h-60l-115 116h100z" />
    <glyph glyph-name="edoublegrave" unicode="&#x201;" horiz-adv-x="475" 
d="M251 48q86 0 108 80l67 -15q-23 -125 -181 -125q-92 0 -146 63t-54 177q0 115 55.5 180t150.5 65q85 0 132 -53.5t47 -141.5q0 -42 -9 -64h-303q4 -75 38.5 -120.5t94.5 -45.5zM120 275h235q1 8 1 21q0 49 -30.5 82.5t-79.5 33.5q-53 0 -86 -35t-40 -102zM358 530h-58
l-105 143h98zM218 530h-60l-115 143h100z" />
    <glyph glyph-name="edoublegrave" unicode="&#x205;" horiz-adv-x="475" 
d="M251 48q86 0 108 80l67 -15q-23 -125 -181 -125q-92 0 -146 63t-54 177q0 115 55.5 180t150.5 65q85 0 132 -53.5t47 -141.5q0 -42 -9 -64h-303q4 -75 38.5 -120.5t94.5 -45.5zM120 275h235q1 8 1 21q0 49 -30.5 82.5t-79.5 33.5q-53 0 -86 -35t-40 -102zM358 530h-58
l-105 143h98zM218 530h-60l-115 143h100z" />
    <glyph glyph-name="Ainvertedbreve" unicode="&#x202;" horiz-adv-x="554" 
d="M460 0l-61 174h-247l-61 -174h-81l215 589h106l213 -589h-84zM228 392l-54 -154h202l-53 153q-14 40 -25.5 78t-15.5 55l-4 18h-4q-14 -59 -46 -150zM275 781q61 0 96 -34t35 -92h-61q-6 69 -70 69q-63 0 -69 -69h-61q0 58 35 92t95 34z" />
    <glyph glyph-name="ainvertedbreve" unicode="&#x203;" horiz-adv-x="472" 
d="M311 137v74q-100 2 -147.5 -20t-47.5 -70q0 -33 21 -53.5t60 -20.5q43 0 78.5 25t35.5 65zM387 334v-235q0 -43 35 -43q16 0 25 4v-61q-22 -6 -41 -6q-81 0 -90 75q-33 -80 -137 -80q-62 0 -100.5 33.5t-38.5 90.5q0 166 271 153v62q0 84 -93 84q-87 0 -93 -77l-70 10
q5 68 54.5 98.5t117.5 30.5q69 0 114.5 -32.5t45.5 -106.5zM227 668q61 0 96 -36.5t35 -99.5h-61q-3 39 -18 58.5t-52 19.5t-52 -19.5t-18 -58.5h-61q0 63 35 99.5t96 36.5z" />
    <glyph glyph-name="Edoublegrave" unicode="&#x204;" horiz-adv-x="487" 
d="M437 68v-68h-352v589h352v-68h-274v-193h243v-68h-243v-192h274zM369 655h-58l-105 116h98zM229 655h-60l-115 116h100z" />
    <glyph glyph-name="Einvertedbreve" unicode="&#x206;" horiz-adv-x="487" 
d="M437 68v-68h-352v589h352v-68h-274v-193h243v-68h-243v-192h274zM252 783q61 0 96 -34t35 -92h-61q-6 69 -70 69q-63 0 -69 -69h-61q0 58 35 92t95 34z" />
    <glyph glyph-name="einvertedbreve" unicode="&#x207;" horiz-adv-x="475" 
d="M251 48q86 0 108 80l67 -15q-23 -125 -181 -125q-92 0 -146 63t-54 177q0 115 55.5 180t150.5 65q85 0 132 -53.5t47 -141.5q0 -42 -9 -64h-303q4 -75 38.5 -120.5t94.5 -45.5zM120 275h235q1 8 1 21q0 49 -30.5 82.5t-79.5 33.5q-53 0 -86 -35t-40 -102zM249 668
q61 0 96 -36.5t35 -99.5h-61q-3 39 -18 58.5t-52 19.5t-52 -19.5t-18 -58.5h-61q0 63 35 99.5t96 36.5z" />
    <glyph glyph-name="Idoublegrave" unicode="&#x208;" horiz-adv-x="248" 
d="M85 589h78v-589h-78v589zM232 655h-58l-105 116h98zM92 655h-60l-115 116h100z" />
    <glyph glyph-name="idoublegrave" unicode="&#x209;" horiz-adv-x="226" 
d="M75 462h76v-462h-76v462zM219 530h-58l-105 143h98zM79 530h-60l-115 143h100z" />
    <glyph glyph-name="Iinvertedbreve" unicode="&#x20a;" horiz-adv-x="248" 
d="M85 589h78v-589h-78v589zM124 783q61 0 96 -34t35 -92h-61q-6 69 -70 69q-63 0 -69 -69h-61q0 58 35 92t95 34z" />
    <glyph glyph-name="iinvertedbreve" unicode="&#x20b;" horiz-adv-x="226" 
d="M75 462h76v-462h-76v462zM113 668q61 0 96 -36.5t35 -99.5h-61q-3 39 -18 58.5t-52 19.5t-52 -19.5t-18 -58.5h-61q0 63 35 99.5t96 36.5z" />
    <glyph glyph-name="Odoublegrave" unicode="&#x20c;" horiz-adv-x="612" 
d="M306 -12q-120 0 -190.5 80.5t-70.5 225.5q0 146 70.5 226.5t190.5 80.5t190.5 -80.5t70.5 -226.5q0 -145 -70.5 -225.5t-190.5 -80.5zM306 533q-87 0 -133 -63t-46 -176t46 -176t133 -63t133 63t46 176t-46 176t-133 63zM414 655h-58l-105 116h98zM274 655h-60l-115 116
h100z" />
    <glyph glyph-name="odoublegrave" unicode="&#x20d;" horiz-adv-x="502" 
d="M251 -12q-95 0 -150.5 64.5t-55.5 181.5q0 116 55 177.5t151 61.5t151 -61.5t55 -177.5q0 -117 -55.5 -181.5t-150.5 -64.5zM251 411q-131 0 -131 -177q0 -186 131 -186t131 186q0 177 -131 177zM357 530h-58l-105 143h98zM217 530h-60l-115 143h100z" />
    <glyph glyph-name="Oinvertedbreve" unicode="&#x20e;" horiz-adv-x="612" 
d="M306 -12q-120 0 -190.5 80.5t-70.5 225.5q0 146 70.5 226.5t190.5 80.5t190.5 -80.5t70.5 -226.5q0 -145 -70.5 -225.5t-190.5 -80.5zM306 533q-87 0 -133 -63t-46 -176t46 -176t133 -63t133 63t46 176t-46 176t-133 63zM306 783q61 0 96 -34t35 -92h-61q-6 69 -70 69
q-63 0 -69 -69h-61q0 58 35 92t95 34z" />
    <glyph glyph-name="oinvertedbreve" unicode="&#x20f;" horiz-adv-x="502" 
d="M251 -12q-95 0 -150.5 64.5t-55.5 181.5q0 116 55 177.5t151 61.5t151 -61.5t55 -177.5q0 -117 -55.5 -181.5t-150.5 -64.5zM251 411q-131 0 -131 -177q0 -186 131 -186t131 186q0 177 -131 177zM251 668q61 0 96 -36.5t35 -99.5h-61q-3 39 -18 58.5t-52 19.5t-52 -19.5
t-18 -58.5h-61q0 63 35 99.5t96 36.5z" />
    <glyph glyph-name="Rinvertedbreve" unicode="&#x212;" horiz-adv-x="539" 
d="M502 0h-85q-17 21 -24 53l-25 107q-13 53 -41 71.5t-79 18.5h-85v-250h-78v589h195q196 0 196 -164q0 -67 -40 -105.5t-98 -40.5v-2q43 -5 67.5 -27.5t36.5 -70.5l30 -118q9 -36 30 -61zM163 524v-210h115q116 0 116 106q0 104 -116 104h-115zM256 783q61 0 96 -34
t35 -92h-61q-6 69 -70 69q-63 0 -69 -69h-61q0 58 35 92t95 34z" />
    <glyph glyph-name="rinvertedbreve" unicode="&#x213;" horiz-adv-x="343" 
d="M323 472l-4 -86q-13 3 -37 3q-54 0 -92.5 -41.5t-38.5 -106.5v-241h-76v462h63l9 -124q14 64 59.5 100.5t116.5 33.5zM199 668q61 0 96 -36.5t35 -99.5h-61q-3 39 -18 58.5t-52 19.5t-52 -19.5t-18 -58.5h-61q0 63 35 99.5t96 36.5z" />
    <glyph glyph-name="Udoublegrave" unicode="&#x214;" horiz-adv-x="573" 
d="M430 589h78v-397q0 -55 -19 -96t-51.5 -63.5t-70.5 -33.5t-81 -11t-81 11t-70.5 33.5t-51 63.5t-18.5 96v397h78v-378q0 -159 143 -159q144 0 144 156v381zM394 655h-58l-105 116h98zM254 655h-60l-115 116h100z" />
    <glyph glyph-name="udoublegrave" unicode="&#x215;" 
d="M361 0l-9 83q-33 -95 -142 -95q-140 0 -140 154v320h76v-313q0 -55 21.5 -80t67.5 -25q43 0 79 37t36 100v281h76v-462h-65zM354 530h-58l-105 143h98zM214 530h-60l-115 143h100z" />
    <glyph glyph-name="Uinvertedbreve" unicode="&#x216;" horiz-adv-x="573" 
d="M430 589h78v-397q0 -55 -19 -96t-51.5 -63.5t-70.5 -33.5t-81 -11t-81 11t-70.5 33.5t-51 63.5t-18.5 96v397h78v-378q0 -159 143 -159q144 0 144 156v381zM286 783q61 0 96 -34t35 -92h-61q-6 69 -70 69q-63 0 -69 -69h-61q0 58 35 92t95 34z" />
    <glyph glyph-name="uinvertedbreve" unicode="&#x217;" 
d="M361 0l-9 83q-33 -95 -142 -95q-140 0 -140 154v320h76v-313q0 -55 21.5 -80t67.5 -25q43 0 79 37t36 100v281h76v-462h-65zM248 668q61 0 96 -36.5t35 -99.5h-61q-3 39 -18 58.5t-52 19.5t-52 -19.5t-18 -58.5h-61q0 63 35 99.5t96 36.5z" />
    <glyph glyph-name="Scommaaccent" unicode="&#x218;" horiz-adv-x="465" 
d="M30 144l74 13q17 -109 127 -109q53 0 84 24t31 69q0 43 -27 68.5t-103 54.5q-26 10 -39.5 15.5t-36.5 17t-36 23.5t-27 29.5t-20 40t-6 49.5q0 83 53 123t128 40q83 0 134.5 -37.5t57.5 -118.5l-76 -12q-4 51 -35 79t-80 28q-47 0 -76 -25.5t-29 -69.5q0 -24 8 -41
t30 -31.5t40.5 -22.5t59.5 -24q38 -15 60 -26t48 -31.5t38.5 -49.5t12.5 -68q0 -80 -55.5 -122t-141.5 -42q-176 0 -198 156zM305 -143q0 -53 -28 -77t-85 -24v34q30 2 43.5 11.5t13.5 33.5q-26 -5 -41.5 8t-15.5 36t14.5 36t38.5 13q25 0 42.5 -19.5t17.5 -51.5z" />
    <glyph glyph-name="scommaaccent" unicode="&#x219;" horiz-adv-x="411" 
d="M30 103l70 17q9 -78 104 -78q46 0 73.5 17.5t27.5 52.5q0 32 -16.5 50.5t-59.5 29.5l-68 16q-62 15 -88.5 46.5t-26.5 82.5q0 70 48 103t120 33q147 0 161 -123l-75 -8q-4 73 -91 73q-43 0 -67 -18.5t-24 -51.5q0 -29 14.5 -46t54.5 -26l63 -16q63 -16 94.5 -46.5
t31.5 -89.5q0 -69 -47.5 -101t-126.5 -32q-78 0 -120.5 27t-51.5 88zM272 -143q0 -53 -28 -77t-85 -24v34q30 2 43.5 11.5t13.5 33.5q-26 -5 -41.5 8t-15.5 36t14.5 36t38.5 13q25 0 42.5 -19.5t17.5 -51.5z" />
    <glyph glyph-name="Hcaron" unicode="&#x21e;" horiz-adv-x="624" 
d="M163 0h-78v589h78v-256h298v256h78v-589h-78v265h-298v-265zM335 650h-46l-121 124h87l32 -34q8 -9 14 -18t8 -13l2 -4h2q5 14 24 35l32 34h87z" />
    <glyph glyph-name="hcaron" unicode="&#x21f;" 
d="M151 668v-294q32 99 138 99q63 0 102.5 -35.5t39.5 -106.5v-331h-76v313q0 44 -22.5 69t-64.5 25q-52 0 -84.5 -32t-32.5 -106v-269h-76v668h76zM136 709h-46l-121 124h87l32 -34q8 -9 14 -18t8 -13l2 -4h2q5 14 24 35l32 34h87z" />
    <glyph glyph-name="Adotabove" unicode="&#x226;" horiz-adv-x="554" 
d="M460 0l-61 174h-247l-61 -174h-81l215 589h106l213 -589h-84zM228 392l-54 -154h202l-53 153q-14 40 -25.5 78t-15.5 55l-4 18h-4q-14 -59 -46 -150zM222 709q0 23 15.5 39t37.5 16q23 0 39 -16t16 -39q0 -22 -16 -38t-39 -16q-22 0 -37.5 16t-15.5 38z" />
    <glyph glyph-name="adotabove" unicode="&#x227;" horiz-adv-x="472" 
d="M311 137v74q-100 2 -147.5 -20t-47.5 -70q0 -33 21 -53.5t60 -20.5q43 0 78.5 25t35.5 65zM387 334v-235q0 -43 35 -43q16 0 25 4v-61q-22 -6 -41 -6q-81 0 -90 75q-33 -80 -137 -80q-62 0 -100.5 33.5t-38.5 90.5q0 166 271 153v62q0 84 -93 84q-87 0 -93 -77l-70 10
q5 68 54.5 98.5t117.5 30.5q69 0 114.5 -32.5t45.5 -106.5zM170 596q0 23 15.5 39t37.5 16q23 0 39 -16t16 -39q0 -22 -16 -38t-39 -16q-22 0 -37.5 16t-15.5 38z" />
    <glyph glyph-name="Otildemacron" unicode="&#x22c;" horiz-adv-x="612" 
d="M306 -12q-120 0 -190.5 80.5t-70.5 225.5q0 146 70.5 226.5t190.5 80.5t190.5 -80.5t70.5 -226.5q0 -145 -70.5 -225.5t-190.5 -80.5zM306 533q-87 0 -133 -63t-46 -176t46 -176t133 -63t133 63t46 176t-46 176t-133 63zM374 627q-27 0 -71 24q-4 2 -14 8t-13.5 7.5
t-10 4.5t-12 4t-11.5 1q-36 0 -30 -47h-48q-17 46 3.5 81t65.5 35q36 0 83 -28q36 -22 53 -22q32 0 29 50h51q15 -51 -5 -84.5t-70 -33.5zM432 790h-251v59h251v-59z" />
    <glyph glyph-name="otildemacron" unicode="&#x22d;" horiz-adv-x="502" 
d="M251 -12q-95 0 -150.5 64.5t-55.5 181.5q0 116 55 177.5t151 61.5t151 -61.5t55 -177.5q0 -117 -55.5 -181.5t-150.5 -64.5zM251 411q-131 0 -131 -177q0 -186 131 -186t131 186q0 177 -131 177zM319 512q-27 0 -71 24q-4 2 -14 8t-13.5 7.5t-10 4.5t-12 4t-11.5 1
q-36 0 -30 -47h-48q-17 46 3.5 79.5t65.5 33.5q36 0 83 -28q36 -22 53 -22q32 0 29 50h51q15 -51 -5 -83t-70 -32zM377 676h-251v61h251v-61z" />
    <glyph glyph-name="Odotabove" unicode="&#x22e;" horiz-adv-x="612" 
d="M306 -12q-120 0 -190.5 80.5t-70.5 225.5q0 146 70.5 226.5t190.5 80.5t190.5 -80.5t70.5 -226.5q0 -145 -70.5 -225.5t-190.5 -80.5zM306 533q-87 0 -133 -63t-46 -176t46 -176t133 -63t133 63t46 176t-46 176t-133 63zM252 709q0 23 15.5 39t37.5 16q23 0 39 -16
t16 -39q0 -22 -16 -38t-39 -16q-22 0 -37.5 16t-15.5 38z" />
    <glyph glyph-name="odotabove" unicode="&#x22f;" horiz-adv-x="502" 
d="M251 -12q-95 0 -150.5 64.5t-55.5 181.5q0 116 55 177.5t151 61.5t151 -61.5t55 -177.5q0 -117 -55.5 -181.5t-150.5 -64.5zM251 411q-131 0 -131 -177q0 -186 131 -186t131 186q0 177 -131 177zM197 595q0 23 15.5 39t37.5 16q23 0 39 -16t16 -39q0 -22 -16 -38t-39 -16
q-22 0 -37.5 16t-15.5 38z" />
    <glyph glyph-name="odotabovemacron" unicode="&#x231;" horiz-adv-x="502" 
d="M251 -12q-95 0 -150.5 64.5t-55.5 181.5q0 116 55 177.5t151 61.5t151 -61.5t55 -177.5q0 -117 -55.5 -181.5t-150.5 -64.5zM251 411q-131 0 -131 -177q0 -186 131 -186t131 186q0 177 -131 177zM197 575q0 23 15.5 39t37.5 16q23 0 39 -16t16 -39q0 -22 -16 -38t-39 -16
q-22 0 -37.5 16t-15.5 38zM377 676h-251v61h251v-61z" />
    <glyph glyph-name="odotabovemacron" unicode="&#xe11e;" horiz-adv-x="502" 
d="M251 -12q-95 0 -150.5 64.5t-55.5 181.5q0 116 55 177.5t151 61.5t151 -61.5t55 -177.5q0 -117 -55.5 -181.5t-150.5 -64.5zM251 411q-131 0 -131 -177q0 -186 131 -186t131 186q0 177 -131 177zM197 575q0 23 15.5 39t37.5 16q23 0 39 -16t16 -39q0 -22 -16 -38t-39 -16
q-22 0 -37.5 16t-15.5 38zM377 676h-251v61h251v-61z" />
    <glyph glyph-name="Ymacron" unicode="&#x232;" horiz-adv-x="464" 
d="M98 589l101 -202q14 -28 24 -51t13 -32l2 -9h4q7 28 36 91l94 203h82l-177 -357v-232h-78v232l-189 357h88zM358 677h-251v59h251v-59z" />
    <glyph glyph-name="ymacron" unicode="&#x233;" horiz-adv-x="426" 
d="M93 462l85 -268q13 -40 22.5 -76.5t12.5 -52.5l3 -16h4q9 53 36 144l81 269h79l-166 -499q-32 -96 -75 -133.5t-105 -37.5q-33 0 -63 11l5 63q29 -13 60 -13q39 0 63 26t46 94l-171 489h83zM346 564h-251v61h251v-61z" />
    <glyph glyph-name="dotlessj" unicode="&#x237;" horiz-adv-x="226" 
d="M75 462h76v-473q0 -109 -51 -152t-155 -40v64q68 -5 99 23.5t31 92.5v485z" />
    <glyph glyph-name="schwa" unicode="&#x259;" horiz-adv-x="475" 
d="M224 412q-84 0 -108 -85l-67 15q12 67 61 99t120 32q92 0 146 -63t54 -177q0 -115 -54.5 -180t-148.5 -65q-85 0 -132.5 54t-49.5 145q0 31 6 57h304q-4 76 -37.5 122t-93.5 46zM353 186h-231q-1 -8 -1 -21q0 -49 31 -82.5t80 -33.5q106 0 121 137z" />
    <glyph glyph-name="ezh" unicode="&#x292;" horiz-adv-x="384" 
d="M111 210l91 112l64 73v4q-34 -3 -97 -3h-137v66h322v-52l-173 -212v-3q77 -1 123.5 -50.5t46.5 -125.5q0 -81 -55 -127t-138 -46q-69 0 -114.5 39t-53.5 101l66 15q8 -47 37 -71.5t71 -24.5q49 0 82.5 30.5t33.5 79.5q0 58 -41.5 96.5t-127.5 47.5v51z" />
    <glyph glyph-name="circumflex" unicode="&#x2c6;" horiz-adv-x="446" 
d="M202 673h42l122 -143h-81l-36 44q-8 11 -14 21t-8 15l-2 4h-4q-5 -16 -24 -40l-36 -44h-81z" />
    <glyph glyph-name="caron" unicode="&#x2c7;" horiz-adv-x="446" 
d="M244 530h-42l-122 143h81l36 -46q8 -11 14 -21t8 -14l2 -5h4q5 16 24 40l36 46h81z" />
    <glyph glyph-name="breve" unicode="&#x2d8;" horiz-adv-x="422" 
d="M211 528q-61 0 -96 36.5t-35 99.5h61q3 -39 18 -58.5t52 -19.5t52 19.5t18 58.5h61q0 -63 -35 -99.5t-96 -36.5z" />
    <glyph glyph-name="dotaccent" unicode="&#x2d9;" horiz-adv-x="268" 
d="M80 612q0 23 15.5 39t37.5 16q23 0 39 -16t16 -39q0 -22 -16 -38t-39 -16q-22 0 -37.5 16t-15.5 38z" />
    <glyph glyph-name="ring" unicode="&#x2da;" horiz-adv-x="358" 
d="M179 524q-46 0 -72.5 27t-26.5 69q0 39 27.5 66t71.5 27t71.5 -27t27.5 -66q0 -42 -26.5 -69t-72.5 -27zM179 677q-26 0 -41.5 -16.5t-15.5 -42.5q0 -25 15 -40t42 -15t42 15t15 40q0 26 -15.5 42.5t-41.5 16.5z" />
    <glyph glyph-name="ogonek" unicode="&#x2db;" horiz-adv-x="376" 
d="M60 -109q0 66 51.5 102.5t108.5 43.5l27 -37q-42 0 -79.5 -26.5t-37.5 -72.5q0 -60 54 -60q47 0 71 46l29 -35q-32 -63 -112 -63q-52 0 -82 27t-30 75z" />
    <glyph glyph-name="tilde" unicode="&#x2dc;" horiz-adv-x="460" 
d="M298 531q-27 0 -71 24q-4 2 -14 8t-13.5 7.5t-10 4.5t-12 4t-11.5 1q-36 0 -30 -47h-48q-17 46 3.5 79.5t65.5 33.5q36 0 83 -28q36 -22 53 -22q32 0 29 50h51q15 -51 -5 -83t-70 -32z" />
    <glyph glyph-name="hungarumlaut" unicode="&#x2dd;" horiz-adv-x="475" 
d="M138 530h-58l65 143h98zM280 530h-60l75 143h100z" />
    <glyph glyph-name="uni0312" unicode="&#x312;" horiz-adv-x="273" 
d="M80 725q0 53 28 77t85 24v-34q-30 -2 -43.5 -11.5t-13.5 -33.5q26 5 41.5 -8t15.5 -36t-14.5 -36t-38.5 -13q-25 0 -42.5 19.5t-17.5 51.5z" />
    <glyph glyph-name="uni0320" unicode="&#x320;" horiz-adv-x="411" 
d="M331 -178h-251v59h251v-59z" />
    <glyph glyph-name="uni0323" unicode="&#x323;" horiz-adv-x="268" 
d="M80 -117q0 23 15.5 39t37.5 16q23 0 39 -16t16 -39q0 -22 -16.5 -38t-38.5 -16t-37.5 16t-15.5 38z" />
    <glyph glyph-name="uni0329" unicode="&#x329;" horiz-adv-x="225" 
d="M80 -192v135h65v-131z" />
    <glyph glyph-name="pi" unicode="&#x3c0;" horiz-adv-x="616" 
d="M169 481h393v-62h-109v-311q0 -60 38 -60q18 0 28.5 11t20.5 34l46 -35q-19 -37 -43 -53.5t-66 -16.5q-100 0 -100 108v323h-130l-44 -419h-75l48 419h-14q-87 0 -87 -100h-65q0 79 41 120.5t118 41.5z" />
    <glyph glyph-name="pi" unicode="&#x3d6;" horiz-adv-x="616" 
d="M169 481h393v-62h-109v-311q0 -60 38 -60q18 0 28.5 11t20.5 34l46 -35q-19 -37 -43 -53.5t-66 -16.5q-100 0 -100 108v323h-130l-44 -419h-75l48 419h-14q-87 0 -87 -100h-65q0 79 41 120.5t118 41.5z" />
    <glyph glyph-name="uni0E3F" unicode="&#xe3f;" horiz-adv-x="527" 
d="M236 -106v106h-146v481h146v93h50v-93h5q76 0 120.5 -32t44.5 -91q0 -91 -88 -109v-3q48 -2 78.5 -34.5t30.5 -77.5q0 -134 -180 -134h-11v-106h-50zM305 212h-19v-149h10q54 0 79.5 16.5t25.5 59.5q0 73 -96 73zM288 418h-2v-143h8q88 0 88 72q0 36 -26 53.5t-68 17.5z
M167 212v-149h69v149h-69zM167 275h69v143h-69v-143z" />
    <glyph glyph-name="Ddotbelow" unicode="&#x1e0c;" horiz-adv-x="585" 
d="M163 65h85q95 0 152 57.5t57 175.5q0 121 -55.5 173.5t-144.5 52.5h-94v-459zM256 0h-171v589h172q132 0 207.5 -69.5t75.5 -218.5q0 -154 -79.5 -227.5t-204.5 -73.5zM203 -142q0 23 15.5 39t37.5 16q23 0 39 -16t16 -39q0 -22 -16 -38t-39 -16q-22 0 -37.5 16t-15.5 38
z" />
    <glyph glyph-name="ddotbelow" unicode="&#x1e0d;" horiz-adv-x="526" 
d="M375 181v108q0 60 -37.5 92t-84.5 32q-60 0 -96 -45t-36 -143q0 -85 35 -130.5t96 -45.5q46 0 84.5 35t38.5 97zM374 399v269h77v-668h-67l-9 80q-37 -92 -148 -92q-76 0 -129 62t-53 174q0 118 54 183.5t153 65.5q43 0 78 -22t44 -52zM194 -142q0 23 15.5 39t37.5 16
q23 0 39 -16t16 -39q0 -22 -16 -38t-39 -16q-22 0 -37.5 16t-15.5 38z" />
    <glyph glyph-name="Dcedilla" unicode="&#x1e10;" horiz-adv-x="585" 
d="M350 -126q0 -42 -28.5 -63.5t-72.5 -21.5q-57 0 -85 38l23 48q25 -37 62 -37q38 0 38 36q0 44 -70 44l5 82h-137v589h172q132 0 207.5 -69.5t75.5 -218.5q0 -151 -77 -225t-199 -76l-2 -42q88 -8 88 -84zM163 65h85q95 0 152 57.5t57 175.5q0 121 -55.5 173.5
t-144.5 52.5h-94v-459z" />
    <glyph glyph-name="dcedilla" unicode="&#x1e11;" horiz-adv-x="526" 
d="M341 -126q0 -42 -28.5 -63.5t-72.5 -21.5q-56 0 -85 38l23 48q25 -37 62 -37q38 0 38 36q0 44 -70 44l5 71q-71 6 -119.5 67t-48.5 168q0 118 54 183.5t153 65.5q43 0 78 -22t44 -52v269h77v-668h-67l-9 80q-32 -80 -120 -90l-2 -32q88 -8 88 -84zM375 181v108
q0 60 -37.5 92t-84.5 32q-60 0 -96 -45t-36 -143q0 -85 35 -130.5t96 -45.5q46 0 84.5 35t38.5 97z" />
    <glyph glyph-name="Hdotbelow" unicode="&#x1e24;" horiz-adv-x="624" 
d="M163 0h-78v589h78v-256h298v256h78v-589h-78v265h-298v-265zM258 -142q0 23 15.5 39t37.5 16q23 0 39 -16t16 -39q0 -22 -16 -38t-39 -16q-22 0 -37.5 16t-15.5 38z" />
    <glyph glyph-name="hdotbelow" unicode="&#x1e25;" 
d="M151 668v-294q32 99 138 99q63 0 102.5 -35.5t39.5 -106.5v-331h-76v313q0 44 -22.5 69t-64.5 25q-52 0 -84.5 -32t-32.5 -106v-269h-76v668h76zM199 -142q0 23 15.5 39t37.5 16q23 0 39 -16t16 -39q0 -22 -16 -38t-39 -16q-22 0 -37.5 16t-15.5 38z" />
    <glyph glyph-name="Ldotbelow" unicode="&#x1e36;" horiz-adv-x="457" 
d="M85 589h78v-521h274v-68h-352v589zM207 -142q0 23 15.5 39t37.5 16q23 0 39 -16t16 -39q0 -22 -16 -38t-39 -16q-22 0 -37.5 16t-15.5 38z" />
    <glyph glyph-name="ldotbelow" unicode="&#x1e37;" horiz-adv-x="252" 
d="M217 62v-63q-28 -6 -49 -6q-43 0 -70.5 24t-27.5 70v581h76v-569q0 -42 40 -42q14 0 31 5zM89 -142q0 23 15.5 39t37.5 16q23 0 39 -16t16 -39q0 -22 -16 -38t-39 -16q-22 0 -37.5 16t-15.5 38z" />
    <glyph glyph-name="uni004C032300AF" unicode="&#x1e38;" horiz-adv-x="457" 
d="M85 589h78v-521h274v-68h-352v589zM207 -142q0 23 15.5 39t37.5 16q23 0 39 -16t16 -39q0 -22 -16 -38t-39 -16q-22 0 -37.5 16t-15.5 38zM266 677h-251v59h251v-59z" />
    <glyph glyph-name="ldotbelowmacron" unicode="&#x1e39;" horiz-adv-x="252" 
d="M217 62v-63q-28 -6 -49 -6q-43 0 -70.5 24t-27.5 70v581h76v-569q0 -42 40 -42q14 0 31 5zM89 -142q0 23 15.5 39t37.5 16q23 0 39 -16t16 -39q0 -22 -16 -38t-39 -16q-22 0 -37.5 16t-15.5 38zM236 744h-251v59h251v-59z" />
    <glyph glyph-name="Mdotbelow" unicode="&#x1e42;" horiz-adv-x="712" 
d="M386 147h-60l-120 227q-16 30 -27 56t-14 37l-3 11h-4q5 -37 5 -108v-370h-78v589h97l149 -297q9 -18 15.5 -34.5t8.5 -23.5l2 -8h4q6 26 26 66l149 297h91v-589h-78v370l5 108h-4q-8 -36 -44 -104zM302 -142q0 23 15.5 39t37.5 16q23 0 39 -16t16 -39q0 -22 -16 -38
t-39 -16q-22 0 -37.5 16t-15.5 38z" />
    <glyph glyph-name="mdotbelow" unicode="&#x1e43;" horiz-adv-x="765" 
d="M413 371q16 53 55 77.5t89 24.5q62 0 100 -34.5t38 -102.5v-336h-76v313q0 45 -21 69.5t-61 24.5q-46 0 -80 -35.5t-34 -102.5v-269h-76v313q0 45 -21 69.5t-61 24.5q-46 0 -80 -35.5t-34 -102.5v-269h-76v462h57l9 -89q17 51 56 75.5t88 24.5q111 0 128 -102zM331 -142
q0 23 15.5 39t37.5 16q23 0 39 -16t16 -39q0 -22 -16 -38t-39 -16q-22 0 -37.5 16t-15.5 38z" />
    <glyph glyph-name="Ndotaccent" unicode="&#x1e44;" horiz-adv-x="642" 
d="M168 589l240 -355q16 -24 34 -54.5t28 -49.5l10 -18h4q-5 67 -5 141v336h78v-589h-81l-243 355q-16 24 -34 54.5t-28 48.5l-10 19h-4q6 -67 6 -141v-336h-78v589h83zM267 708q0 23 15.5 39t37.5 16q23 0 39 -16t16 -39q0 -22 -16 -38t-39 -16q-22 0 -37.5 16t-15.5 38z
" />
    <glyph glyph-name="ndotaccent" unicode="&#x1e45;" 
d="M132 462l9 -89q36 100 148 100q63 0 102.5 -35.5t39.5 -106.5v-331h-76v312q0 45 -22.5 70t-64.5 25q-52 0 -84.5 -32t-32.5 -106v-269h-76v462h57zM205 596q0 23 15.5 39t37.5 16q23 0 39 -16t16 -39q0 -22 -16 -38t-39 -16q-22 0 -37.5 16t-15.5 38z" />
    <glyph glyph-name="Ndotbelow" unicode="&#x1e46;" horiz-adv-x="642" 
d="M168 589l240 -355q16 -24 34 -54.5t28 -49.5l10 -18h4q-5 67 -5 141v336h78v-589h-81l-243 355q-16 24 -34 54.5t-28 48.5l-10 19h-4q6 -67 6 -141v-336h-78v589h83zM267 -142q0 23 15.5 39t37.5 16q23 0 39 -16t16 -39q0 -22 -16 -38t-39 -16q-22 0 -37.5 16t-15.5 38z
" />
    <glyph glyph-name="ndotbelow" unicode="&#x1e47;" 
d="M132 462l9 -89q36 100 148 100q63 0 102.5 -35.5t39.5 -106.5v-331h-76v312q0 45 -22.5 70t-64.5 25q-52 0 -84.5 -32t-32.5 -106v-269h-76v462h57zM203 -142q0 23 15.5 39t37.5 16q23 0 39 -16t16 -39q0 -22 -16 -38t-39 -16q-22 0 -37.5 16t-15.5 38z" />
    <glyph glyph-name="Rdotbelow" unicode="&#x1e5a;" horiz-adv-x="539" 
d="M502 0h-85q-17 21 -24 53l-25 107q-13 53 -41 71.5t-79 18.5h-85v-250h-78v589h195q196 0 196 -164q0 -67 -40 -105.5t-98 -40.5v-2q43 -5 67.5 -27.5t36.5 -70.5l30 -118q9 -36 30 -61zM163 524v-210h115q116 0 116 106q0 104 -116 104h-115zM202 -142q0 23 15.5 39
t37.5 16q23 0 39 -16t16 -39q0 -22 -16 -38t-39 -16q-22 0 -37.5 16t-15.5 38z" />
    <glyph glyph-name="rdotbelow" unicode="&#x1e5b;" horiz-adv-x="343" 
d="M323 472l-4 -86q-13 3 -37 3q-54 0 -92.5 -41.5t-38.5 -106.5v-241h-76v462h63l9 -124q14 64 59.5 100.5t116.5 33.5zM57 -142q0 23 15.5 39t37.5 16q23 0 39 -16t16 -39q0 -22 -16 -38t-39 -16q-22 0 -37.5 16t-15.5 38z" />
    <glyph glyph-name="Rdotbelowmacron" unicode="&#x1e5c;" horiz-adv-x="539" 
d="M502 0h-85q-17 21 -24 53l-25 107q-13 53 -41 71.5t-79 18.5h-85v-250h-78v589h195q196 0 196 -164q0 -67 -40 -105.5t-98 -40.5v-2q43 -5 67.5 -27.5t36.5 -70.5l30 -118q9 -36 30 -61zM163 524v-210h115q116 0 116 106q0 104 -116 104h-115zM202 -142q0 23 15.5 39
t37.5 16q23 0 39 -16t16 -39q0 -22 -16 -38t-39 -16q-22 0 -37.5 16t-15.5 38zM382 677h-251v59h251v-59z" />
    <glyph glyph-name="rdotbelowmacron" unicode="&#x1e5d;" horiz-adv-x="343" 
d="M323 472l-4 -86q-13 3 -37 3q-54 0 -92.5 -41.5t-38.5 -106.5v-241h-76v462h63l9 -124q14 64 59.5 100.5t116.5 33.5zM325 564h-251v61h251v-61zM58 -142q0 23 15.5 39t37.5 16q23 0 39 -16t16 -39q0 -22 -16 -38t-39 -16q-22 0 -37.5 16t-15.5 38z" />
    <glyph glyph-name="Sdotbelow" unicode="&#x1e62;" horiz-adv-x="465" 
d="M30 144l74 13q17 -109 127 -109q53 0 84 24t31 69q0 43 -27 68.5t-103 54.5q-26 10 -39.5 15.5t-36.5 17t-36 23.5t-27 29.5t-20 40t-6 49.5q0 83 53 123t128 40q83 0 134.5 -37.5t57.5 -118.5l-76 -12q-4 51 -35 79t-80 28q-47 0 -76 -25.5t-29 -69.5q0 -24 8 -41
t30 -31.5t40.5 -22.5t59.5 -24q38 -15 60 -26t48 -31.5t38.5 -49.5t12.5 -68q0 -80 -55.5 -122t-141.5 -42q-176 0 -198 156zM185 -142q0 23 15.5 39t37.5 16q23 0 39 -16t16 -39q0 -22 -16 -38t-39 -16q-22 0 -37.5 16t-15.5 38z" />
    <glyph glyph-name="sdotbelow" unicode="&#x1e63;" horiz-adv-x="411" 
d="M30 103l70 17q9 -78 104 -78q46 0 73.5 17.5t27.5 52.5q0 32 -16.5 50.5t-59.5 29.5l-68 16q-62 15 -88.5 46.5t-26.5 82.5q0 70 48 103t120 33q147 0 161 -123l-75 -8q-4 73 -91 73q-43 0 -67 -18.5t-24 -51.5q0 -29 14.5 -46t54.5 -26l63 -16q63 -16 94.5 -46.5
t31.5 -89.5q0 -69 -47.5 -101t-126.5 -32q-78 0 -120.5 27t-51.5 88zM162 -142q0 23 15.5 39t37.5 16q23 0 39 -16t16 -39q0 -22 -16 -38t-39 -16q-22 0 -37.5 16t-15.5 38z" />
    <glyph glyph-name="Tdotbelow" unicode="&#x1e6c;" horiz-adv-x="449" 
d="M263 0h-78v521h-175v68h429v-68h-176v-521zM170 -142q0 23 15.5 39t37.5 16q23 0 39 -16t16 -39q0 -22 -16 -38t-39 -16q-22 0 -37.5 16t-15.5 38z" />
    <glyph glyph-name="tdotbelow" unicode="&#x1e6d;" horiz-adv-x="321" 
d="M291 77l15 -63q-41 -26 -102 -26t-94 32t-33 92v289h-67v61h67v98l77 10v-108h137v-61h-138v-275q0 -73 62 -73q39 0 76 24zM127 -142q0 23 15.5 39t37.5 16q23 0 39 -16t16 -39q0 -22 -16 -38t-39 -16q-22 0 -37.5 16t-15.5 38z" />
    <glyph glyph-name="Wgrave" unicode="&#x1e80;" horiz-adv-x="810" 
d="M453 589l99 -384q11 -42 19 -81t11 -58l3 -18h4q8 63 32 156l101 385h78l-160 -589h-110l-97 366q-11 42 -17.5 80.5t-7.5 56.5l-1 18h-4q-4 -61 -28 -155l-95 -366h-110l-160 589h83l99 -382q11 -41 19 -81t11 -59l3 -19h4q7 65 32 158l104 383h88zM443 655h-69l-97 116
h104z" />
    <glyph glyph-name="wgrave" unicode="&#x1e81;" horiz-adv-x="655" 
d="M369 462l71 -259q12 -41 19.5 -78.5t9.5 -54.5l2 -17h4q2 56 26 150l67 259h77l-127 -462h-91l-67 237q-12 41 -19.5 77t-9.5 52l-2 16h-4q-5 -52 -30 -145l-64 -237h-91l-130 462h79l68 -258q11 -41 19 -79t10 -55l2 -17h4q3 59 28 151l71 258h78zM367 530h-65l-115 143
h105z" />
    <glyph glyph-name="Wacute" unicode="&#x1e82;" horiz-adv-x="810" 
d="M453 589l99 -384q11 -42 19 -81t11 -58l3 -18h4q8 63 32 156l101 385h78l-160 -589h-110l-97 366q-11 42 -17.5 80.5t-7.5 56.5l-1 18h-4q-4 -61 -28 -155l-95 -366h-110l-160 589h83l99 -382q11 -41 19 -81t11 -59l3 -19h4q7 65 32 158l104 383h88zM438 655h-69l62 116
h104z" />
    <glyph glyph-name="wacute" unicode="&#x1e83;" horiz-adv-x="655" 
d="M369 462l71 -259q12 -41 19.5 -78.5t9.5 -54.5l2 -17h4q2 56 26 150l67 259h77l-127 -462h-91l-67 237q-12 41 -19.5 77t-9.5 52l-2 16h-4q-5 -52 -30 -145l-64 -237h-91l-130 462h79l68 -258q11 -41 19 -79t10 -55l2 -17h4q3 59 28 151l71 258h78zM353 530h-65l75 143
h105z" />
    <glyph glyph-name="Wdieresis" unicode="&#x1e84;" horiz-adv-x="810" 
d="M453 589l99 -384q11 -42 19 -81t11 -58l3 -18h4q8 63 32 156l101 385h78l-160 -589h-110l-97 366q-11 42 -17.5 80.5t-7.5 56.5l-1 18h-4q-4 -61 -28 -155l-95 -366h-110l-160 589h83l99 -382q11 -41 19 -81t11 -59l3 -19h4q7 65 32 158l104 383h88zM256 710q0 22 16 38
t38 16t38 -16t16 -38t-16 -38t-38 -16t-38 16t-16 38zM445 709q0 22 16 38t38 16q23 0 38.5 -15.5t15.5 -38.5q0 -22 -16 -38t-38 -16t-38 16t-16 38z" />
    <glyph glyph-name="wdieresis" unicode="&#x1e85;" horiz-adv-x="655" 
d="M369 462l71 -259q12 -41 19.5 -78.5t9.5 -54.5l2 -17h4q2 56 26 150l67 259h77l-127 -462h-91l-67 237q-12 41 -19.5 77t-9.5 52l-2 16h-4q-5 -52 -30 -145l-64 -237h-91l-130 462h79l68 -258q11 -41 19 -79t10 -55l2 -17h4q3 59 28 151l71 258h78zM178 595q0 22 16 38
t38 16t38 -15.5t16 -38.5q0 -22 -16 -38t-38 -16t-38 16t-16 38zM367 594q0 22 16 38t38 16q23 0 38.5 -16t15.5 -38t-16 -38t-38 -16t-38 16t-16 38z" />
    <glyph glyph-name="Idotbelow" unicode="&#x1eca;" horiz-adv-x="248" 
d="M85 589h78v-589h-78v589zM70 -142q0 23 15.5 39t37.5 16q23 0 39 -16t16 -39q0 -22 -16 -38t-39 -16q-22 0 -37.5 16t-15.5 38z" />
    <glyph glyph-name="idotbelow" unicode="&#x1ecb;" horiz-adv-x="226" 
d="M59 612q0 23 15.5 39t37.5 16q23 0 39 -16t16 -39q0 -22 -16.5 -38t-38.5 -16t-37.5 16t-15.5 38zM75 462h76v-462h-76v462zM59 -142q0 23 15.5 39t37.5 16q23 0 39 -16t16 -39q0 -22 -16 -38t-39 -16q-22 0 -37.5 16t-15.5 38z" />
    <glyph glyph-name="Odotbelow" unicode="&#x1ecc;" horiz-adv-x="612" 
d="M306 -12q-120 0 -190.5 80.5t-70.5 225.5q0 146 70.5 226.5t190.5 80.5t190.5 -80.5t70.5 -226.5q0 -145 -70.5 -225.5t-190.5 -80.5zM306 533q-87 0 -133 -63t-46 -176t46 -176t133 -63t133 63t46 176t-46 176t-133 63zM252 -142q0 23 15.5 39t37.5 16q23 0 39 -16
t16 -39q0 -22 -16 -38t-39 -16q-22 0 -37.5 16t-15.5 38z" />
    <glyph glyph-name="odotbelow" unicode="&#x1ecd;" horiz-adv-x="502" 
d="M251 -12q-95 0 -150.5 64.5t-55.5 181.5q0 116 55 177.5t151 61.5t151 -61.5t55 -177.5q0 -117 -55.5 -181.5t-150.5 -64.5zM251 411q-131 0 -131 -177q0 -186 131 -186t131 186q0 177 -131 177zM197 -142q0 23 15.5 39t37.5 16q23 0 39 -16t16 -39q0 -22 -16 -38
t-39 -16q-22 0 -37.5 16t-15.5 38z" />
    <glyph glyph-name="Udotbelow" unicode="&#x1ee4;" horiz-adv-x="573" 
d="M430 589h78v-397q0 -55 -19 -96t-51.5 -63.5t-70.5 -33.5t-81 -11t-81 11t-70.5 33.5t-51 63.5t-18.5 96v397h78v-378q0 -159 143 -159q144 0 144 156v381zM232 -142q0 23 15.5 39t37.5 16q23 0 39 -16t16 -39q0 -22 -16 -38t-39 -16q-22 0 -37.5 16t-15.5 38z" />
    <glyph glyph-name="udotbelow" unicode="&#x1ee5;" 
d="M361 0l-9 83q-33 -95 -142 -95q-140 0 -140 154v320h76v-313q0 -55 21.5 -80t67.5 -25q43 0 79 37t36 100v281h76v-462h-65zM194 -142q0 23 15.5 39t37.5 16q23 0 39 -16t16 -39q0 -22 -16 -38t-39 -16q-22 0 -37.5 16t-15.5 38z" />
    <glyph glyph-name="Ygrave" unicode="&#x1ef2;" horiz-adv-x="464" 
d="M98 589l101 -202q14 -28 24 -51t13 -32l2 -9h4q7 28 36 91l94 203h82l-177 -357v-232h-78v232l-189 357h88zM270 655h-69l-97 116h104z" />
    <glyph glyph-name="ygrave" unicode="&#x1ef3;" horiz-adv-x="426" 
d="M93 462l85 -268q13 -40 22.5 -76.5t12.5 -52.5l3 -16h4q9 53 36 144l81 269h79l-166 -499q-32 -96 -75 -133.5t-105 -37.5q-33 0 -63 11l5 63q29 -13 60 -13q39 0 63 26t46 94l-171 489h83zM260 530h-65l-115 143h105z" />
    <glyph glyph-name="Ytilde" unicode="&#x1ef8;" horiz-adv-x="464" 
d="M98 589l101 -202q14 -28 24 -51t13 -32l2 -9h4q7 28 36 91l94 203h82l-177 -357v-232h-78v232l-189 357h88zM300 655q-27 0 -71 24q-4 2 -14 8t-13.5 7.5t-10 4.5t-12 4t-11.5 1q-36 0 -30 -47h-48q-17 46 3.5 81t65.5 35q36 0 83 -28q36 -22 53 -22q32 0 29 50h51
q15 -51 -5 -84.5t-70 -33.5z" />
    <glyph glyph-name="ytilde" unicode="&#x1ef9;" horiz-adv-x="426" 
d="M93 462l85 -268q13 -40 22.5 -76.5t12.5 -52.5l3 -16h4q9 53 36 144l81 269h79l-166 -499q-32 -96 -75 -133.5t-105 -37.5q-33 0 -63 11l5 63q29 -13 60 -13q39 0 63 26t46 94l-171 489h83zM289 531q-27 0 -71 24q-4 2 -14 8t-13.5 7.5t-10 4.5t-12 4t-11.5 1
q-36 0 -30 -47h-48q-17 46 3.5 79.5t65.5 33.5q36 0 83 -28q36 -22 53 -22q32 0 29 50h51q15 -51 -5 -83t-70 -32z" />
    <glyph glyph-name="enspace" unicode="&#x2002;" horiz-adv-x="450" 
 />
    <glyph glyph-name="emspace" unicode="&#x2003;" horiz-adv-x="900" 
 />
    <glyph glyph-name="threeperemspace" unicode="&#x2004;" horiz-adv-x="300" 
 />
    <glyph glyph-name="fourperemspace" unicode="&#x2005;" horiz-adv-x="225" 
 />
    <glyph glyph-name="sixperemspace" unicode="&#x2006;" horiz-adv-x="150" 
 />
    <glyph glyph-name="figurespace" unicode="&#x2007;" horiz-adv-x="513" 
 />
    <glyph glyph-name="punctuationspace" unicode="&#x2008;" horiz-adv-x="171" 
 />
    <glyph glyph-name="thinspace" unicode="&#x2009;" horiz-adv-x="90" 
 />
    <glyph glyph-name="hairspace" unicode="&#x200a;" horiz-adv-x="45" 
 />
    <glyph glyph-name="zerowidthspace" unicode="&#x200b;" horiz-adv-x="0" 
 />
    <glyph glyph-name="figuredash" unicode="&#x2012;" horiz-adv-x="599" 
d="M70 224v55h459v-55h-459z" />
    <glyph glyph-name="endash" unicode="&#x2013;" horiz-adv-x="500" 
d="M70 224v55h360v-55h-360z" />
    <glyph glyph-name="emdash" unicode="&#x2014;" horiz-adv-x="1000" 
d="M70 224v55h860v-55h-860z" />
    <glyph glyph-name="uni2015" unicode="&#x2015;" horiz-adv-x="1250" 
d="M70 224v55h1110v-55h-1110z" />
    <glyph glyph-name="doublebar" unicode="&#x2016;" horiz-adv-x="415" 
d="M167 -203h-67v872h67v-872zM315 -203h-67v872h67v-872z" />
    <glyph glyph-name="quoteleft" unicode="&#x2018;" horiz-adv-x="221" 
d="M40 539q0 128 141 138v-39q-77 -12 -77 -73q29 6 47.5 -9t18.5 -42q0 -26 -16.5 -41t-44.5 -15t-48.5 22t-20.5 59z" />
    <glyph glyph-name="quoteright" unicode="&#x2019;" horiz-adv-x="221" 
d="M181 596q0 -128 -141 -138v39q77 12 77 73q-29 -6 -47.5 9t-18.5 42q0 26 16.5 41t44.5 15t48.5 -22t20.5 -59z" />
    <glyph glyph-name="quotesinglbase" unicode="&#x201a;" horiz-adv-x="221" 
d="M181 27q0 -128 -141 -138v39q77 12 77 73q-29 -6 -47.5 9t-18.5 42q0 26 16.5 41t44.5 15t48.5 -22t20.5 -59z" />
    <glyph glyph-name="reversequoteleft" unicode="&#x201b;" horiz-adv-x="221" 
d="M40 596q0 37 20.5 59t48.5 22t44.5 -15t16.5 -41q0 -27 -18.5 -42t-47.5 -9q0 -61 77 -73v-39q-141 10 -141 138z" />
    <glyph glyph-name="quotedblleft" unicode="&#x201c;" horiz-adv-x="401" 
d="M40 539q0 128 141 138v-39q-77 -12 -77 -73q29 6 47.5 -9t18.5 -42q0 -26 -16.5 -41t-44.5 -15t-48.5 22t-20.5 59zM220 539q0 128 141 138v-39q-77 -12 -77 -73q29 6 47.5 -9t18.5 -42q0 -26 -16.5 -41t-44.5 -15t-48.5 22t-20.5 59z" />
    <glyph glyph-name="quotedblright" unicode="&#x201d;" horiz-adv-x="401" 
d="M181 596q0 -128 -141 -138v39q77 12 77 73q-29 -6 -47.5 9t-18.5 42q0 26 16.5 41t44.5 15t48.5 -22t20.5 -59zM361 596q0 -128 -141 -138v39q77 12 77 73q-29 -6 -47.5 9t-18.5 42q0 26 16.5 41t44.5 15t48.5 -22t20.5 -59z" />
    <glyph glyph-name="quotedblbase" unicode="&#x201e;" horiz-adv-x="401" 
d="M181 27q0 -128 -141 -138v39q77 12 77 73q-29 -6 -47.5 9t-18.5 42q0 26 16.5 41t44.5 15t48.5 -22t20.5 -59zM361 27q0 -128 -141 -138v39q77 12 77 73q-29 -6 -47.5 9t-18.5 42q0 26 16.5 41t44.5 15t48.5 -22t20.5 -59z" />
    <glyph glyph-name="reversequotedblleft" unicode="&#x201f;" horiz-adv-x="401" 
d="M40 596q0 37 20.5 59t48.5 22t44.5 -15t16.5 -41q0 -27 -18.5 -42t-47.5 -9q0 -61 77 -73v-39q-141 10 -141 138zM220 596q0 37 20.5 59t48.5 22t44.5 -15t16.5 -41q0 -27 -18.5 -42t-47.5 -9q0 -61 77 -73v-39q-141 10 -141 138z" />
    <glyph glyph-name="dagger" unicode="&#x2020;" horiz-adv-x="544" 
d="M241 299l-191 -11v78l191 -10l-10 233h82l-10 -233l191 10v-78l-190 11l10 -448h-83z" />
    <glyph glyph-name="daggerdbl" unicode="&#x2021;" horiz-adv-x="543" 
d="M303 309l-1 -179l191 11v-76l-190 11l11 -226h-83l10 226l-191 -11v76l191 -11v179l-191 -11v76l191 -11l-10 226h83l-12 -226l191 11v-76z" />
    <glyph glyph-name="bullet" unicode="&#x2022;" horiz-adv-x="320" 
d="M85 238q0 31 22 53.5t52 22.5q31 0 53.5 -22t22.5 -54q0 -30 -22.5 -52t-53.5 -22q-30 0 -52 22t-22 52z" />
    <glyph glyph-name="ellipsis" unicode="&#x2026;" horiz-adv-x="852" 
d="M80 56q0 26 18 44t44 18t44 -18t18 -44t-18 -44t-44 -18t-44 18t-18 44zM364 56q0 26 18 44t44 18t44 -18t18 -44t-18 -44t-44 -18t-44 18t-18 44zM648 56q0 26 18 44t44 18t44 -18t18 -44t-18 -44t-44 -18t-44 18t-18 44z" />
    <glyph glyph-name="perthousand" unicode="&#x2030;" horiz-adv-x="1206" 
d="M173 229q-66 0 -102 50t-36 134q0 83 37.5 133.5t100.5 50.5t100.5 -50.5t37.5 -133.5q0 -84 -36 -134t-102 -50zM173 542q-36 0 -55.5 -35.5t-19.5 -94.5q0 -58 19.5 -95t55.5 -37t55.5 37t19.5 95q0 59 -19.5 94.5t-55.5 35.5zM248 0l306 590h56l-305 -590h-57zM683 -7
q-66 0 -102 50t-36 134q0 83 37.5 133.5t100.5 50.5t100.5 -50.5t37.5 -133.5q0 -84 -36 -134t-102 -50zM683 306q-36 0 -55.5 -35.5t-19.5 -94.5q0 -58 19.5 -95t55.5 -37t55.5 37t19.5 95q0 59 -19.5 94.5t-55.5 35.5zM1033 -7q-66 0 -102 50t-36 134q0 83 37.5 133.5
t100.5 50.5t100.5 -50.5t37.5 -133.5q0 -84 -36 -134t-102 -50zM1033 306q-36 0 -55.5 -35.5t-19.5 -94.5q0 -58 19.5 -95t55.5 -37t55.5 37t19.5 95q0 59 -19.5 94.5t-55.5 35.5z" />
    <glyph glyph-name="tripleprime" unicode="&#x2034;" horiz-adv-x="465" 
d="M60 412v256h87l-39 -256h-48zM199 412v256h87l-39 -256h-48zM338 412v256h87l-39 -256h-48z" />
    <glyph glyph-name="guilsinglleft" unicode="&#x2039;" horiz-adv-x="284" 
d="M97 235v-4q16 -7 56 -55l100 -120l-42 -36l-181 213l181 213l43 -43l-101 -117q-18 -21 -32 -33.5t-19 -14.5z" />
    <glyph glyph-name="guilsinglright" unicode="&#x203a;" horiz-adv-x="284" 
d="M187 231v4q-15 4 -56 51l-101 117l43 43l181 -213l-181 -213l-42 36l100 120q18 21 32 35t19 17z" />
    <glyph glyph-name="fraction" unicode="&#x2044;" horiz-adv-x="162" 
d="M-100 0l306 590h56l-305 -590h-57z" />
    <glyph glyph-name="uni2070" unicode="&#x2070;" horiz-adv-x="346" 
d="M173 229q-66 0 -102 50t-36 134q0 83 37.5 133.5t100.5 50.5t100.5 -50.5t37.5 -133.5q0 -84 -36 -134t-102 -50zM173 542q-36 0 -55.5 -35.5t-19.5 -94.5q0 -58 19.5 -95t55.5 -37t55.5 37t19.5 95q0 59 -19.5 94.5t-55.5 35.5z" />
    <glyph glyph-name="uni2074" unicode="&#x2074;" horiz-adv-x="338" 
d="M195 236v92h-180v49l176 212h67v-213h60v-48h-60v-92h-63zM197 375v91l5 70h-4q-11 -26 -38 -62l-45 -53q-11 -13 -23 -24.5t-18 -16.5l-7 -5v-4q13 4 56 4h74z" />
    <glyph glyph-name="uni2075" unicode="&#x2075;" horiz-adv-x="310" 
d="M52 393l9 196h203v-52h-153l-5 -101q21 29 70 29q47 0 75.5 -28t28.5 -82q0 -61 -36 -93.5t-103 -32.5q-51 0 -83.5 23.5t-37.5 60.5l54 23q11 -60 73 -60q33 0 52.5 18.5t19.5 54.5q0 34 -16 51.5t-44 17.5q-36 0 -56 -25h-51z" />
    <glyph glyph-name="uni2076" unicode="&#x2076;" horiz-adv-x="328" 
d="M296 526l-49 -22q-16 42 -64 42q-44 0 -69 -42.5t-25 -119.5h4q5 36 31 57.5t67 21.5q50 0 81 -32.5t31 -81.5q0 -50 -34.5 -85t-96.5 -35q-63 0 -100 43.5t-37 128.5q0 96 43 146t109 50q84 0 109 -71zM107 344q0 -32 20 -51t49 -19q30 0 50 19t20 51q0 31 -19.5 50.5
t-48.5 19.5q-31 0 -51 -19t-20 -51z" />
    <glyph glyph-name="uni2077" unicode="&#x2077;" horiz-adv-x="291" 
d="M211 535h-136v-53h-55v107h261v-30l-144 -323h-63z" />
    <glyph glyph-name="uni2078" unicode="&#x2078;" horiz-adv-x="350" 
d="M175 391q-30 0 -50.5 -15t-20.5 -43q0 -59 71 -59t71 59q0 28 -20.5 43t-50.5 15zM175 229q-61 0 -98 25.5t-37 72.5q0 33 21 56t55 28v4q-68 14 -68 82q0 46 35 73t92 27t92 -27t35 -73q0 -68 -68 -82v-4q34 -5 55 -28t21 -56q0 -47 -37 -72.5t-98 -25.5zM175 550
q-31 0 -51 -14.5t-20 -40.5q0 -25 21.5 -39.5t49.5 -14.5t49.5 14.5t21.5 39.5q0 26 -20 40.5t-51 14.5z" />
    <glyph glyph-name="uni2079" unicode="&#x2079;" horiz-adv-x="328" 
d="M28 300l49 22q16 -42 64 -42q47 0 72.5 42.5t25.5 119.5h-4q-5 -36 -31 -57.5t-67 -21.5q-50 0 -81 32.5t-31 81.5q0 50 34.5 85t96.5 35q63 0 100 -43.5t37 -128.5q0 -96 -43 -146t-109 -50q-40 0 -70.5 18.5t-42.5 52.5zM221 480q0 32 -20 51t-49 19q-30 0 -50 -19
t-20 -51q0 -31 19.5 -50.5t48.5 -19.5q31 0 51 19t20 51z" />
    <glyph glyph-name="uni207A" unicode="&#x207a;" horiz-adv-x="445" 
d="M45 439h156v151h39v-151h160v-39h-160v-164h-39v164h-156v39z" />
    <glyph glyph-name="uni207B" unicode="&#x207b;" horiz-adv-x="446" 
d="M401 399h-356v40h356v-40z" />
    <glyph glyph-name="uni207C" unicode="&#x207c;" horiz-adv-x="446" 
d="M401 345h-356v40h356v-40zM401 462h-356v40h356v-40z" />
    <glyph glyph-name="uni207D" unicode="&#x207d;" horiz-adv-x="229" 
d="M90 409q0 -68 23 -118.5t71 -108.5h-51q-88 102 -88 227t88 227h51q-48 -56 -71 -107.5t-23 -119.5z" />
    <glyph glyph-name="uni207E" unicode="&#x207e;" horiz-adv-x="229" 
d="M139 409q0 68 -23 119.5t-71 107.5h50q89 -101 89 -227t-89 -227h-50q48 58 71 108.5t23 118.5z" />
    <glyph glyph-name="n.superior" unicode="&#x207f;" horiz-adv-x="384" 
d="M109 593l9 -59q11 33 40 50t63 17q45 0 76.5 -27t31.5 -83v-204h-66v194q0 67 -59 67q-78 0 -78 -100v-161h-66v306h49z" />
    <glyph glyph-name="uni2080" unicode="&#x2080;" horiz-adv-x="346" 
d="M173 -7q-66 0 -102 50t-36 134q0 83 37.5 133.5t100.5 50.5t100.5 -50.5t37.5 -133.5q0 -84 -36 -134t-102 -50zM173 306q-36 0 -55.5 -35.5t-19.5 -94.5q0 -58 19.5 -95t55.5 -37t55.5 37t19.5 95q0 59 -19.5 94.5t-55.5 35.5z" />
    <glyph glyph-name="uni2081" unicode="&#x2081;" horiz-adv-x="293" 
d="M283 0h-253v50h100v241l-110 -12v51l174 24v-304h89v-50z" />
    <glyph glyph-name="uni2082" unicode="&#x2082;" horiz-adv-x="301" 
d="M281 50v-50h-261v48q98 68 138 109.5t40 90.5q0 57 -58 57q-32 0 -47.5 -20t-16.5 -50l-52 25q0 40 34.5 70.5t92.5 30.5q48 0 80.5 -27.5t32.5 -79.5q0 -30 -13 -58t-27.5 -46.5t-42.5 -40.5t-41.5 -30.5t-41.5 -24.5v-4h183z" />
    <glyph glyph-name="uni2083" unicode="&#x2083;" horiz-adv-x="314" 
d="M177 185v-3q97 -9 97 -92q0 -45 -36.5 -71t-93.5 -26q-58 0 -92.5 22.5t-41.5 58.5l56 22q6 -23 28 -39t50 -16q66 0 66 54q0 31 -25 47t-85 17v44q100 4 100 58q0 23 -15 36.5t-42 13.5q-51 0 -63 -48l-55 20q10 35 41.5 56.5t80.5 21.5t82 -23t33 -69q0 -75 -85 -84z
" />
    <glyph glyph-name="uni2084" unicode="&#x2084;" horiz-adv-x="338" 
d="M195 0v92h-180v49l176 212h67v-213h60v-48h-60v-92h-63zM197 139v91l5 70h-4q-11 -26 -38 -62l-45 -53q-11 -13 -23 -24.5t-18 -16.5l-7 -5v-4q13 4 56 4h74z" />
    <glyph glyph-name="uni2085" unicode="&#x2085;" horiz-adv-x="310" 
d="M52 157l9 196h203v-52h-153l-5 -101q21 29 70 29q47 0 75.5 -28t28.5 -82q0 -61 -36 -93.5t-103 -32.5q-51 0 -83.5 23.5t-37.5 60.5l54 23q11 -60 73 -60q33 0 52.5 18.5t19.5 54.5q0 34 -16 51.5t-44 17.5q-36 0 -56 -25h-51z" />
    <glyph glyph-name="uni2086" unicode="&#x2086;" horiz-adv-x="328" 
d="M296 290l-49 -22q-16 42 -64 42q-44 0 -69 -42.5t-25 -119.5h4q5 36 31 57.5t67 21.5q50 0 81 -32.5t31 -81.5q0 -50 -34.5 -85t-96.5 -35q-63 0 -100 43.5t-37 128.5q0 96 43 146t109 50q84 0 109 -71zM107 108q0 -32 20 -51t49 -19q30 0 50 19t20 51q0 31 -19.5 50.5
t-48.5 19.5q-31 0 -51 -19t-20 -51z" />
    <glyph glyph-name="uni2087" unicode="&#x2087;" horiz-adv-x="291" 
d="M211 299h-136v-53h-55v107h261v-30l-144 -323h-63z" />
    <glyph glyph-name="uni2088" unicode="&#x2088;" horiz-adv-x="350" 
d="M175 155q-30 0 -50.5 -15t-20.5 -43q0 -59 71 -59t71 59q0 28 -20.5 43t-50.5 15zM175 -7q-61 0 -98 25.5t-37 72.5q0 33 21 56t55 28v4q-68 14 -68 82q0 46 35 73t92 27t92 -27t35 -73q0 -68 -68 -82v-4q34 -5 55 -28t21 -56q0 -47 -37 -72.5t-98 -25.5zM175 314
q-31 0 -51 -14.5t-20 -40.5q0 -25 21.5 -39.5t49.5 -14.5t49.5 14.5t21.5 39.5q0 26 -20 40.5t-51 14.5z" />
    <glyph glyph-name="uni2089" unicode="&#x2089;" horiz-adv-x="328" 
d="M28 64l49 22q16 -42 64 -42q47 0 72.5 42.5t25.5 119.5h-4q-5 -36 -31 -57.5t-67 -21.5q-50 0 -81 32.5t-31 81.5q0 50 34.5 85t96.5 35q63 0 100 -43.5t37 -128.5q0 -96 -43 -146t-109 -50q-40 0 -70.5 18.5t-42.5 52.5zM221 244q0 32 -20 51t-49 19q-30 0 -50 -19
t-20 -51q0 -31 19.5 -50.5t48.5 -19.5q31 0 51 19t20 51z" />
    <glyph glyph-name="uni208A" unicode="&#x208a;" horiz-adv-x="445" 
d="M45 203h156v152h39v-152h160v-39h-160v-164h-39v164h-156v39z" />
    <glyph glyph-name="uni208B" unicode="&#x208b;" horiz-adv-x="446" 
d="M401 163h-356v40h356v-40z" />
    <glyph glyph-name="uni208C" unicode="&#x208c;" horiz-adv-x="446" 
d="M401 109h-356v40h356v-40zM401 226h-356v40h356v-40z" />
    <glyph glyph-name="uni208D" unicode="&#x208d;" horiz-adv-x="229" 
d="M90 174q0 -69 23 -119.5t71 -108.5h-51q-88 102 -88 228q0 124 88 226h51q-48 -56 -71 -107.5t-23 -118.5z" />
    <glyph glyph-name="uni208E" unicode="&#x208e;" horiz-adv-x="229" 
d="M139 174q0 67 -23 118.5t-71 107.5h50q89 -101 89 -226q0 -127 -89 -228h-50q48 58 71 108.5t23 119.5z" />
    <glyph glyph-name="uni20A1" unicode="&#x20a1;" horiz-adv-x="507" 
d="M104 -66l32 96q-86 66 -86 209q0 119 64 186.5t167 67.5h11l29 86l47 -16l-26 -76q26 -6 47 -18l28 84l47 -16l-34 -101q22 -23 37 -58l-69 -39l-97 -287q66 7 108 76l57 -43q-60 -94 -186 -97l-32 -95l-48 15l28 84q-26 5 -47 13l-29 -87zM128 243q0 -84 35 -134
l108 321q-69 -3 -106 -53t-37 -134zM203 71q19 -13 46 -18l115 342q-19 19 -43 28z" />
    <glyph glyph-name="uni20A2" unicode="&#x20a2;" horiz-adv-x="522" 
d="M414 128l57 -43q-62 -97 -194 -97q-98 0 -160 64.5t-62 186.5q0 119 64 186.5t167 67.5q71 0 115.5 -28t70.5 -87l-70 -39q-33 91 -118 91q-72 0 -111.5 -50.5t-39.5 -136.5q0 -75 28 -123.5t80 -63.5v209h60l6 -66q9 32 35.5 52t57.5 20l-2 -78q-8 4 -19 4
q-28 0 -49 -19t-21 -50v-76q64 9 105 76z" />
    <glyph glyph-name="franc" unicode="&#x20a3;" horiz-adv-x="443" 
d="M345 152h-161v-152h-77v152h-77v50h77v50h-77v50h77v179h316v-65h-239v-114h161v-50h-161v-50h161v-50z" />
    <glyph glyph-name="lira" unicode="&#x20a4;" horiz-adv-x="490" 
d="M330 152h-123q1 -5 1 -14q0 -56 -46 -73h181q63 0 73 49l59 -30q-21 -84 -124 -84h-289v68h29q20 0 32.5 17.5t12.5 46.5q0 6 -2 20h-99v50h85q-11 28 -17 50h-68v50h58q-1 10 -1 34q0 79 52 118t125 39q136 0 156 -128l-71 -12q-7 40 -27 59.5t-65 19.5q-43 0 -68.5 -24
t-25.5 -72q0 -18 3 -34h159v-50h-147l15 -50h132v-50z" />
    <glyph glyph-name="uni20A6" unicode="&#x20a6;" horiz-adv-x="665" 
d="M625 162h-81v-162h-82l-193 261q-20 27 -39 57t-28 46l-9 17h-4q5 -79 5 -153v-228h-77v162h-77v50h77v40h-77v50h77v179h85l195 -270q20 -28 37.5 -56.5t25.5 -42.5l7 -15h4q-4 82 -4 156v228h77v-179h81v-50h-81v-40h81v-50z" />
    <glyph glyph-name="peseta" unicode="&#x20a7;" horiz-adv-x="1175" 
d="M167 0h-77v481h159q154 0 191 -90h323q13 52 60.5 77t112.5 25q154 0 168 -128l-78 -8q-5 78 -99 78q-43 0 -68.5 -20t-25.5 -55q0 -32 17 -50.5t56 -26.5l68 -14q131 -28 131 -144q0 -71 -50 -104t-134 -33q-162 0 -181 128l77 10q9 -81 110 -81q104 0 104 74
q0 34 -17 52.5t-62 28.5l-74 16q-106 22 -117 110h-125v-326h-77v326h-106v-7q0 -171 -205 -171h-81v-148zM167 418v-207h75q70 0 100 23.5t30 84.5q0 52 -31 75.5t-98 23.5h-76z" />
    <glyph glyph-name="uni20A8" unicode="&#x20a8;" horiz-adv-x="830" 
d="M167 418v-164h93q56 0 79 18.5t23 61.5q0 84 -102 84h-93zM273 481q172 0 172 -142q0 -56 -33 -86t-89 -32v-3q23 -4 39.5 -15t37 -34t28.5 -30l50 -49q27 -26 58.5 -34.5t84.5 -8.5q79 0 79 45q0 20 -12.5 32.5t-45.5 19.5l-50 11q-90 20 -90 105q0 54 39.5 79.5
t96.5 25.5q118 0 129 -97l-73 -7q-7 49 -65 49q-56 0 -56 -45q0 -35 52 -46l42 -9q55 -13 79 -40.5t24 -75.5q0 -53 -43 -79.5t-119 -26.5q-84 0 -130 19t-90 66l-48 50q-3 3 -16 16.5t-17 17.5t-15.5 13.5t-20 12.5t-21.5 6.5t-27 3.5h-56v-193h-77v481h183z" />
    <glyph glyph-name="uni20A9" unicode="&#x20a9;" horiz-adv-x="842" 
d="M802 182h-134l-50 -182h-95l-80 278q-10 34 -15 67.5t-6 50.5v16h-3q-1 -57 -23 -134l-78 -278h-97l-50 182h-131v50h118l-11 40h-107v50h93l-43 159h78l81 -301q9 -34 15 -67t8 -49l1 -15h3q4 54 25 130l83 302h79l81 -303q9 -34 15.5 -66.5t8.5 -47.5l2 -15h3
q3 52 23 128l81 304h75l-45 -159h95v-50h-109l-11 -40h120v-50z" />
    <glyph glyph-name="uni20AA" unicode="&#x20aa;" horiz-adv-x="684" 
d="M456 115h-78v229q0 74 -76 74h-134v-418h-78v481h227q83 0 111 -38t28 -114v-214zM526 481h78v-329q0 -77 -28.5 -114.5t-111.5 -37.5h-230v365h78v-302h138q76 0 76 74v344z" />
    <glyph glyph-name="Euro" unicode="&#x20ac;" horiz-adv-x="531" 
d="M335 162h-151q32 -111 137 -111q42 0 70.5 17.5t53.5 59.5l55 -43q-59 -97 -187 -97q-78 0 -133.5 44t-73.5 130h-76v50h69v27q0 25 1 37h-70v50h79q21 80 77.5 123.5t135.5 43.5q68 0 111 -28t68 -87l-67 -39q-33 91 -114 91q-102 0 -135 -104h177l-10 -50h-177
q-1 -11 -1 -33q0 -21 1 -31h170z" />
    <glyph glyph-name="uni20AE" unicode="&#x20ae;" horiz-adv-x="451" 
d="M263 0h-77v148l-111 -19v50l111 19v50l-111 -19v50l111 19v118h-166v65h411v-65h-168v-105l107 18v-50l-107 -18v-50l107 18v-50l-107 -18v-161z" />
    <glyph glyph-name="uni20B1" unicode="&#x20b1;" horiz-adv-x="567" 
d="M547 283h-80q-19 -135 -202 -135h-81v-148h-77v283h-77v50h77v148h159q194 0 203 -148h78v-50zM184 418v-85h204q-4 45 -35 65t-93 20h-76zM259 211q58 0 88.5 16t38.5 56h-202v-72h75z" />
    <glyph glyph-name="afii61289" unicode="&#x2113;" horiz-adv-x="317" 
d="M39 130l-30 47l62 43v242q0 207 131 207q97 0 97 -127q0 -107 -48 -200t-112 -149v-66q0 -44 16 -60.5t53 -16.5q30 0 57 11v-63q-28 -10 -67 -10q-63 0 -95 29.5t-32 97.5v40zM139 478v-213q44 42 75.5 120t31.5 166q0 65 -44 65q-29 0 -46 -34.5t-17 -103.5z" />
    <glyph glyph-name="afii61352" unicode="&#x2116;" horiz-adv-x="977" 
d="M644 0v61h293v-61h-293zM164 336v-231q0 -59 -26.5 -90.5t-82.5 -42.5l-25 69q33 7 44.5 23t11.5 57v468h83l240 -355q16 -24 34 -54.5t28 -49.5l10 -18h4q-5 67 -5 141v218q0 59 26.5 90.5t82.5 42.5l25 -69q-33 -7 -44.5 -23t-11.5 -57v-455h-81l-243 355
q-16 24 -34 54.5t-28 48.5l-10 19h-4q6 -67 6 -141zM789 153q-66 0 -104.5 42.5t-38.5 120.5q0 77 38.5 118t104.5 41t104.5 -41t38.5 -118q0 -78 -38.5 -120.5t-104.5 -42.5zM787 418q-70 0 -70 -102q0 -109 70 -109t70 109q0 102 -70 102z" />
    <glyph glyph-name="published" unicode="&#x2117;" horiz-adv-x="703" 
d="M381 252h-77v-139h-65v372h141q61 0 97 -29t36 -87q0 -57 -37.5 -87t-94.5 -30zM304 430v-122h67q77 0 77 61q0 29 -20 45t-58 16h-66zM45 294q0 132 89 219.5t217 87.5t217.5 -87.5t89.5 -219.5t-89.5 -219t-217.5 -87t-217 87t-89 219zM76 294q0 -120 80 -198.5
t196 -78.5t196 78.5t80 198.5t-80 199t-196 79t-196 -79t-80 -199z" />
    <glyph glyph-name="servicemark" unicode="&#x2120;" horiz-adv-x="588" 
d="M20 401l52 8q5 -35 53 -35q44 0 44 31q0 27 -37 36l-34 7q-67 15 -67 71q0 40 27.5 58t69.5 18q86 0 94 -65l-51 -6q-4 33 -45 33q-43 0 -43 -31q0 -27 37 -36l32 -7q70 -15 70 -76q0 -70 -100 -70q-92 0 -102 64zM538 342h-50v172h-5l-51 -125h-47l-54 125h-5v-172h-50
v248h68l63 -143h4l62 143h65v-248z" />
    <glyph glyph-name="trademark" unicode="&#x2122;" horiz-adv-x="586" 
d="M144 341h-50v204h-74v44h199v-44h-75v-204zM536 341h-50v172h-5l-51 -125h-47l-54 125h-5v-172h-50v248h68l63 -143h4l62 143h65v-248z" />
    <glyph glyph-name="estimated" unicode="&#x212e;" horiz-adv-x="647" 
d="M323 601q71 0 126 -25.5t87.5 -69.5t49 -98t16.5 -114v-26h-431v-169q60 -58 152 -58q130 0 184 104h66q-30 -73 -93 -115t-157 -42q-93 0 -157.5 45t-92.5 112.5t-28 148.5q0 82 28 149.5t92.5 112.5t157.5 45zM323 548q-94 0 -152 -58v-170h304v170q-58 58 -152 58z
" />
    <glyph glyph-name="uni2153" unicode="&#x2153;" horiz-adv-x="862" 
d="M304 236h-253v50h100v241l-110 -12v51l174 24v-304h89v-50zM250 0l306 590h56l-305 -590h-57zM689 185v-3q97 -9 97 -92q0 -45 -36.5 -71t-93.5 -26q-58 0 -92.5 22.5t-41.5 58.5l56 22q6 -23 28 -39t50 -16q66 0 66 54q0 31 -25 47t-85 17v44q100 4 100 58
q0 23 -15 36.5t-42 13.5q-51 0 -63 -48l-55 20q10 35 41.5 56.5t80.5 21.5t82 -23t33 -69q0 -75 -85 -84z" />
    <glyph glyph-name="uni2154" unicode="&#x2154;" horiz-adv-x="862" 
d="M313 286v-50h-261v48q98 68 138 109.5t40 90.5q0 57 -58 57q-32 0 -47.5 -20t-16.5 -50l-52 25q0 40 34.5 70.5t92.5 30.5q48 0 80.5 -27.5t32.5 -79.5q0 -30 -13 -58t-27.5 -46.5t-42.5 -40.5t-41.5 -30.5t-41.5 -24.5v-4h183zM250 0l306 590h56l-305 -590h-57zM689 185
v-3q97 -9 97 -92q0 -45 -36.5 -71t-93.5 -26q-58 0 -92.5 22.5t-41.5 58.5l56 22q6 -23 28 -39t50 -16q66 0 66 54q0 31 -25 47t-85 17v44q100 4 100 58q0 23 -15 36.5t-42 13.5q-51 0 -63 -48l-55 20q10 35 41.5 56.5t80.5 21.5t82 -23t33 -69q0 -75 -85 -84z" />
    <glyph glyph-name="uni215B" unicode="&#x215b;" horiz-adv-x="862" 
d="M304 236h-253v50h100v241l-110 -12v51l174 24v-304h89v-50zM250 0l306 590h56l-305 -590h-57zM687 155q-30 0 -50.5 -15t-20.5 -43q0 -59 71 -59t71 59q0 28 -20.5 43t-50.5 15zM687 -7q-61 0 -98 25.5t-37 72.5q0 33 21 56t55 28v4q-68 14 -68 82q0 46 35 73t92 27
t92 -27t35 -73q0 -68 -68 -82v-4q34 -5 55 -28t21 -56q0 -47 -37 -72.5t-98 -25.5zM687 314q-31 0 -51 -14.5t-20 -40.5q0 -25 21.5 -39.5t49.5 -14.5t49.5 14.5t21.5 39.5q0 26 -20 40.5t-51 14.5z" />
    <glyph glyph-name="uni215C" unicode="&#x215c;" horiz-adv-x="862" 
d="M209 421v-3q97 -9 97 -92q0 -45 -36.5 -71t-93.5 -26q-58 0 -92.5 22.5t-41.5 58.5l56 22q6 -23 28 -39t50 -16q66 0 66 54q0 31 -25 47t-85 17v44q100 4 100 58q0 23 -15 36.5t-42 13.5q-51 0 -63 -48l-55 20q10 35 41.5 56.5t80.5 21.5t82 -23t33 -69q0 -75 -85 -84z
M250 0l306 590h56l-305 -590h-57zM687 155q-30 0 -50.5 -15t-20.5 -43q0 -59 71 -59t71 59q0 28 -20.5 43t-50.5 15zM687 -7q-61 0 -98 25.5t-37 72.5q0 33 21 56t55 28v4q-68 14 -68 82q0 46 35 73t92 27t92 -27t35 -73q0 -68 -68 -82v-4q34 -5 55 -28t21 -56
q0 -47 -37 -72.5t-98 -25.5zM687 314q-31 0 -51 -14.5t-20 -40.5q0 -25 21.5 -39.5t49.5 -14.5t49.5 14.5t21.5 39.5q0 26 -20 40.5t-51 14.5z" />
    <glyph glyph-name="uni215D" unicode="&#x215d;" horiz-adv-x="862" 
d="M76 393l9 196h203v-52h-153l-5 -101q21 29 70 29q47 0 75.5 -28t28.5 -82q0 -61 -36 -93.5t-103 -32.5q-51 0 -83.5 23.5t-37.5 60.5l54 23q11 -60 73 -60q33 0 52.5 18.5t19.5 54.5q0 34 -16 51.5t-44 17.5q-36 0 -56 -25h-51zM250 0l306 590h56l-305 -590h-57zM687 155
q-30 0 -50.5 -15t-20.5 -43q0 -59 71 -59t71 59q0 28 -20.5 43t-50.5 15zM687 -7q-61 0 -98 25.5t-37 72.5q0 33 21 56t55 28v4q-68 14 -68 82q0 46 35 73t92 27t92 -27t35 -73q0 -68 -68 -82v-4q34 -5 55 -28t21 -56q0 -47 -37 -72.5t-98 -25.5zM687 314q-31 0 -51 -14.5
t-20 -40.5q0 -25 21.5 -39.5t49.5 -14.5t49.5 14.5t21.5 39.5q0 26 -20 40.5t-51 14.5z" />
    <glyph glyph-name="uni215E" unicode="&#x215e;" horiz-adv-x="801" 
d="M235 535h-136v-53h-55v107h261v-30l-144 -323h-63zM189 0l306 590h56l-305 -590h-57zM626 155q-30 0 -50.5 -15t-20.5 -43q0 -59 71 -59t71 59q0 28 -20.5 43t-50.5 15zM626 -7q-61 0 -98 25.5t-37 72.5q0 33 21 56t55 28v4q-68 14 -68 82q0 46 35 73t92 27t92 -27
t35 -73q0 -68 -68 -82v-4q34 -5 55 -28t21 -56q0 -47 -37 -72.5t-98 -25.5zM626 314q-31 0 -51 -14.5t-20 -40.5q0 -25 21.5 -39.5t49.5 -14.5t49.5 14.5t21.5 39.5q0 26 -20 40.5t-51 14.5z" />
    <glyph glyph-name="arrowleft" unicode="&#x2190;" horiz-adv-x="661" 
d="M149 331h467v-72h-469l218 -222l-54 -49l-293 305l293 308l55 -48z" />
    <glyph glyph-name="arrowup" unicode="&#x2191;" horiz-adv-x="685" 
d="M379 470v-470h-72v472l-222 -218l-49 54l305 293l308 -293l-49 -55z" />
    <glyph glyph-name="arrowright" unicode="&#x2192;" horiz-adv-x="661" 
d="M18 331h467l-213 222l55 48l289 -308l-288 -305l-54 49l214 222h-470v72z" />
    <glyph glyph-name="arrowdown" unicode="&#x2193;" horiz-adv-x="685" 
d="M306 120v469h72v-472l222 219l49 -54l-305 -294l-308 294l49 55z" />
    <glyph glyph-name="uni2196" unicode="&#x2196;" horiz-adv-x="683" 
d="M615 0l-466 469v-370h-68v490h467v-67h-350l467 -471z" />
    <glyph glyph-name="uni2197" unicode="&#x2197;" horiz-adv-x="683" 
d="M534 469l-466 -469l-50 51l467 471h-350v67h467v-490h-68v370z" />
    <glyph glyph-name="uni2198" unicode="&#x2198;" horiz-adv-x="683" 
d="M68 589l466 -468v369h68v-490h-467v67h350l-467 471z" />
    <glyph glyph-name="uni2199" unicode="&#x2199;" horiz-adv-x="683" 
d="M149 121l466 468l50 -51l-467 -471h350v-67h-467v490h68v-369z" />
    <glyph glyph-name="partialdiff" unicode="&#x2202;" horiz-adv-x="513" 
d="M141 625l44 46q127 -51 202.5 -166.5t75.5 -241.5q0 -137 -55 -203.5t-152 -66.5q-95 0 -150.5 62.5t-55.5 177.5q0 113 53 174t138 61q78 0 125 -61q-60 141 -225 218zM386 233q0 83 -34 127t-99 44q-128 0 -128 -171q0 -85 33 -130.5t97 -45.5q131 0 131 176z" />
    <glyph glyph-name="increment" unicode="&#x2206;" horiz-adv-x="554" 
d="M544 0h-534l215 589h106zM437 65l-114 326q-14 40 -25.5 77t-15.5 54l-5 16h-4q-13 -55 -45 -146l-114 -326z" />
    <glyph glyph-name="product" unicode="&#x220f;" horiz-adv-x="614" 
d="M157 -202h-77v791h454v-791h-77v719h-300v-719z" />
    <glyph glyph-name="summation" unicode="&#x2211;" horiz-adv-x="437" 
d="M397 521h-152l-103 3v-4q33 -27 70 -73l122 -152l-130 -153q-17 -20 -34.5 -38.5t-26.5 -26.5l-9 -8v-4q40 3 103 3h160v-68h-397l238 296l-238 293h397v-68z" />
    <glyph glyph-name="minus" unicode="&#x2212;" horiz-adv-x="498" 
d="M453 225h-408v46h408v-46z" />
    <glyph glyph-name="radical" unicode="&#x221a;" horiz-adv-x="558" 
d="M184 462l136 -372h3l155 596l70 -6l-182 -680h-81l-142 356l-93 -51l-30 60z" />
    <glyph glyph-name="infinity" unicode="&#x221e;" horiz-adv-x="864" 
d="M120 250q0 -55 29.5 -85.5t72.5 -30.5q66 0 115 52l56 64l-56 64q-47 52 -115 52q-43 0 -72.5 -30.5t-29.5 -85.5zM432 207l-50 -57q-64 -76 -159 -76q-77 0 -125 48t-48 128t48 128t125 48q95 0 159 -76l50 -57l50 57q66 76 159 76q77 0 125 -48t48 -128t-48 -128
t-125 -48q-95 0 -159 76zM744 250q0 55 -29.5 85.5t-72.5 30.5q-68 0 -115 -52l-56 -64l56 -64q47 -52 115 -52q43 0 72.5 30.5t29.5 85.5z" />
    <glyph glyph-name="integral" unicode="&#x222b;" horiz-adv-x="273" 
d="M93 -45v560q0 81 44.5 118t109.5 37q46 0 86 -16l-16 -68q-40 20 -72 20q-76 0 -76 -95v-560q0 -81 -44 -118t-110 -37q-45 0 -85 16l16 68q38 -20 72 -20q75 0 75 95z" />
    <glyph glyph-name="approxequal" unicode="&#x2248;" horiz-adv-x="498" 
d="M362 255q-40 0 -113.5 25t-109.5 25q-53 0 -94 -50v50q30 45 91 45q37 0 114 -25t115 -25q21 0 45.5 13t42.5 35v-58q-32 -35 -91 -35zM362 141q-40 0 -113.5 25.5t-109.5 25.5q-53 0 -94 -51v51q15 22 40.5 33.5t50.5 11.5q37 0 114 -25.5t115 -25.5q21 0 45.5 13
t42.5 36v-59q-33 -35 -91 -35z" />
    <glyph glyph-name="notequal" unicode="&#x2260;" horiz-adv-x="498" 
d="M453 286h-128l-69 -80h197v-46h-237l-108 -126l-35 31l82 95h-110v46h149l69 80h-218v46h257l98 114l36 -31l-72 -83h89v-46z" />
    <glyph glyph-name="lessequal" unicode="&#x2264;" horiz-adv-x="396" 
d="M341 447l-211 -158l212 -159l-34 -39l-259 198l259 197zM351 21h-306v46h306v-46z" />
    <glyph glyph-name="greaterequal" unicode="&#x2265;" horiz-adv-x="396" 
d="M266 289l-211 158l33 39l258 -197l-258 -198l-34 39zM351 21h-306v46h306v-46z" />
    <glyph glyph-name="blacksquare" unicode="&#x25a0;" horiz-adv-x="759" 
d="M85 0v589h589v-589h-589z" />
    <glyph glyph-name="whitesquare" unicode="&#x25a1;" horiz-adv-x="759" 
d="M85 0v589h589v-589h-589zM128 546v-503h503v503h-503z" />
    <glyph glyph-name="blacksmallsquare" unicode="&#x25aa;" horiz-adv-x="496" 
d="M85 139v325h326v-325h-326z" />
    <glyph glyph-name="whitesmallsquare" unicode="&#x25ab;" horiz-adv-x="496" 
d="M85 139v325h326v-325h-326zM128 421v-239h240v239h-240z" />
    <glyph glyph-name="triagup" unicode="&#x25b2;" horiz-adv-x="571" 
d="M40 0l245 601l246 -601h-491z" />
    <glyph glyph-name="triagrt" unicode="&#x25ba;" horiz-adv-x="686" 
d="M85 536l601 -245l-601 -246v491z" />
    <glyph glyph-name="triagdn" unicode="&#x25bc;" horiz-adv-x="571" 
d="M285 -12l-245 601h491z" />
    <glyph glyph-name="triaglf" unicode="&#x25c4;" horiz-adv-x="686" 
d="M0 291l601 245v-491z" />
    <glyph glyph-name="lozenge" unicode="&#x25ca;" horiz-adv-x="506" 
d="M456 304l-176 -337h-55l-175 337l175 327h55zM383 303l-129 250l-130 -250l130 -260z" />
    <glyph glyph-name="whitecircle" unicode="&#x25cb;" horiz-adv-x="703" 
d="M45 294q0 127 89.5 217t216.5 90t217 -90t90 -217t-90 -216.5t-217 -89.5t-216.5 89.5t-89.5 216.5zM89 293q0 -110 76.5 -187.5t185.5 -77.5q108 0 185 78t77 187q0 110 -77 188.5t-185 78.5q-109 0 -185.5 -78.5t-76.5 -188.5z" />
    <glyph glyph-name="whitecircle" unicode="&#x25ef;" horiz-adv-x="703" 
d="M45 294q0 127 89.5 217t216.5 90t217 -90t90 -217t-90 -216.5t-217 -89.5t-216.5 89.5t-89.5 216.5zM89 293q0 -110 76.5 -187.5t185.5 -77.5q108 0 185 78t77 187q0 110 -77 188.5t-185 78.5q-109 0 -185.5 -78.5t-76.5 -188.5z" />
    <glyph glyph-name="blackcircle" unicode="&#x25cf;" horiz-adv-x="703" 
d="M45 294q0 127 89.5 217t216.5 90t217 -90t90 -217t-90 -216.5t-217 -89.5t-216.5 89.5t-89.5 216.5z" />
    <glyph glyph-name="anglebracketleft" unicode="&#x3008;" horiz-adv-x="322" 
d="M277 -203h-69l-153 441l153 430h69l-149 -432z" />
    <glyph glyph-name="anglebracketright" unicode="&#x3009;" horiz-adv-x="322" 
d="M114 -203h-69l149 439l-149 432h69l153 -430z" />
    <glyph glyph-name="lcedilla" unicode="&#xe100;" horiz-adv-x="252" 
d="M246 -126q0 -42 -28.5 -63.5t-72.5 -21.5q-57 0 -85 38l23 48q25 -37 62 -37q38 0 38 36q0 44 -70 44l6 84q-49 23 -49 85v581h76v-569q0 -42 40 -42q14 0 31 5v-63q-28 -6 -49 -6h-8l-2 -35q88 -8 88 -84z" />
    <glyph glyph-name="uni004500600323" unicode="&#xe101;" horiz-adv-x="487" 
d="M437 68v-68h-352v589h352v-68h-274v-193h243v-68h-243v-192h274zM207 -142q0 23 15.5 39t37.5 16q23 0 39 -16t16 -39q0 -22 -16 -38t-39 -16q-22 0 -37.5 16t-15.5 38zM294 655h-69l62 116h104z" />
    <glyph glyph-name="uni006500600323" unicode="&#xe102;" horiz-adv-x="475" 
d="M251 48q86 0 108 80l67 -15q-23 -125 -181 -125q-92 0 -146 63t-54 177q0 115 55.5 180t150.5 65q85 0 132 -53.5t47 -141.5q0 -42 -9 -64h-303q4 -75 38.5 -120.5t94.5 -45.5zM120 275h235q1 8 1 21q0 49 -30.5 82.5t-79.5 33.5q-53 0 -86 -35t-40 -102zM278 530h-65
l75 143h105zM198 -142q0 23 15.5 39t37.5 16q23 0 39 -16t16 -39q0 -22 -16 -38t-39 -16q-22 0 -37.5 16t-15.5 38z" />
    <glyph glyph-name="uni004500B40323" unicode="&#xe103;" horiz-adv-x="487" 
d="M437 68v-68h-352v589h352v-68h-274v-193h243v-68h-243v-192h274zM207 -142q0 23 15.5 39t37.5 16q23 0 39 -16t16 -39q0 -22 -16 -38t-39 -16q-22 0 -37.5 16t-15.5 38zM299 655h-69l-97 116h104z" />
    <glyph glyph-name="uni006500B40323" unicode="&#xe104;" horiz-adv-x="475" 
d="M251 48q86 0 108 80l67 -15q-23 -125 -181 -125q-92 0 -146 63t-54 177q0 115 55.5 180t150.5 65q85 0 132 -53.5t47 -141.5q0 -42 -9 -64h-303q4 -75 38.5 -120.5t94.5 -45.5zM120 275h235q1 8 1 21q0 49 -30.5 82.5t-79.5 33.5q-53 0 -86 -35t-40 -102zM292 530h-65
l-115 143h105zM198 -142q0 23 15.5 39t37.5 16q23 0 39 -16t16 -39q0 -22 -16 -38t-39 -16q-22 0 -37.5 16t-15.5 38z" />
    <glyph glyph-name="Gtilde" unicode="&#xe105;" horiz-adv-x="604" 
d="M311 300h228v-300h-69l-9 79q-16 -42 -62.5 -66.5t-99.5 -24.5q-116 0 -185 80t-69 224q0 145 74.5 227t196.5 82q160 0 215 -139l-71 -35q-19 53 -58.5 80.5t-91.5 27.5q-86 0 -134.5 -64.5t-48.5 -177.5q0 -110 45 -175t131 -65q66 0 112 31.5t46 93.5v52h-150v70z
M384 655q-27 0 -71 24q-4 2 -14 8t-13.5 7.5t-10 4.5t-12 4t-11.5 1q-36 0 -30 -47h-48q-17 46 3.5 81t65.5 35q36 0 83 -28q36 -22 53 -22q32 0 29 50h51q15 -51 -5 -84.5t-70 -33.5z" />
    <glyph glyph-name="gtilde" unicode="&#xe106;" horiz-adv-x="479" 
d="M226 473q85 0 134 -40q27 12 36 70l68 -24q-5 -33 -25 -54.5t-50 -27.5q22 -35 22 -88q0 -77 -52 -118.5t-131 -41.5q-40 0 -61 8q-35 -18 -35 -51q0 -42 54 -42h107q159 0 159 -126q0 -42 -21 -72.5t-57.5 -46.5t-77 -23t-88.5 -7q-198 0 -198 123q0 46 31.5 76t86.5 34
q-29 4 -45 22.5t-16 46.5q0 61 66 77q-88 40 -88 141q0 76 49.5 120t131.5 44zM83 -83q0 -73 131 -73q165 0 165 84q0 69 -86 69h-95q-115 0 -115 -80zM119 310q0 -48 28.5 -76.5t78.5 -28.5q51 0 80.5 26.5t29.5 78.5t-29.5 79.5t-80.5 26.5t-79 -28t-28 -78zM304 531
q-27 0 -71 24q-4 2 -14 8t-13.5 7.5t-10 4.5t-12 4t-11.5 1q-36 0 -30 -47h-48q-17 46 3.5 79.5t65.5 33.5q36 0 83 -28q36 -22 53 -22q32 0 29 50h51q15 -51 -5 -83t-70 -32z" />
    <glyph glyph-name="Gcommaturnedabove" unicode="&#xe107;" horiz-adv-x="604" 
d="M311 300h228v-300h-69l-9 79q-16 -42 -62.5 -66.5t-99.5 -24.5q-116 0 -185 80t-69 224q0 145 74.5 227t196.5 82q160 0 215 -139l-71 -35q-19 53 -58.5 80.5t-91.5 27.5q-86 0 -134.5 -64.5t-48.5 -177.5q0 -110 45 -175t131 -65q66 0 112 31.5t46 93.5v52h-150v70z
M244 725q0 53 28 77t85 24v-34q-30 -2 -43.5 -11.5t-13.5 -33.5q26 5 41.5 -8t15.5 -36t-14.5 -36t-38.5 -13q-25 0 -42.5 19.5t-17.5 51.5z" />
    <glyph glyph-name="gcommaturnedabove" unicode="&#xe108;" horiz-adv-x="479" 
d="M226 473q85 0 134 -40q27 12 36 70l68 -24q-5 -33 -25 -54.5t-50 -27.5q22 -35 22 -88q0 -77 -52 -118.5t-131 -41.5q-40 0 -61 8q-35 -18 -35 -51q0 -42 54 -42h107q159 0 159 -126q0 -42 -21 -72.5t-57.5 -46.5t-77 -23t-88.5 -7q-198 0 -198 123q0 46 31.5 76t86.5 34
q-29 4 -45 22.5t-16 46.5q0 61 66 77q-88 40 -88 141q0 76 49.5 120t131.5 44zM83 -83q0 -73 131 -73q165 0 165 84q0 69 -86 69h-95q-115 0 -115 -80zM119 310q0 -48 28.5 -76.5t78.5 -28.5q51 0 80.5 26.5t29.5 78.5t-29.5 79.5t-80.5 26.5t-79 -28t-28 -78zM165 605
q0 53 28 77t85 24v-34q-30 -2 -43.5 -11.5t-13.5 -33.5q26 5 41.5 -8t15.5 -36t-14.5 -36t-38.5 -13q-25 0 -42.5 19.5t-17.5 51.5z" />
    <glyph glyph-name="Hmacronbelow" unicode="&#xe109;" horiz-adv-x="624" 
d="M163 0h-78v589h78v-256h298v256h78v-589h-78v265h-298v-265zM438 -178h-251v59h251v-59z" />
    <glyph glyph-name="hmacronbelow" unicode="&#xe10a;" 
d="M151 668v-294q32 99 138 99q63 0 102.5 -35.5t39.5 -106.5v-331h-76v313q0 44 -22.5 69t-64.5 25q-52 0 -84.5 -32t-32.5 -106v-269h-76v668h76zM379 -178h-251v59h251v-59z" />
    <glyph glyph-name="Jcaron" unicode="&#xe10b;" horiz-adv-x="426" 
d="M283 589h78v-418q0 -96 -50.5 -139.5t-128.5 -43.5q-127 0 -182 116l63 41q25 -52 51 -71.5t70 -19.5q57 0 78 35t21 102v398zM345 650h-46l-121 124h87l32 -34q8 -9 14 -18t8 -13l2 -4h2q5 14 24 35l32 34h87z" />
    <glyph glyph-name="Kcedilla" unicode="&#xe10d;" horiz-adv-x="522" 
d="M502 0h-96l-194 265h-49v-265h-78v589h78v-256h52l181 256h92l-211 -286zM344 -126q0 -42 -28.5 -63.5t-72.5 -21.5q-57 0 -85 38l23 48q25 -37 62 -37q38 0 38 36q0 44 -70 44l6 87h42l-3 -47q88 -8 88 -84z" />
    <glyph glyph-name="kcedilla" unicode="&#xe10e;" horiz-adv-x="451" 
d="M237 247l209 -247h-96l-172 212h-27v-212h-76v668h76v-396h21l165 190h94zM331 -126q0 -42 -28.5 -63.5t-72.5 -21.5q-56 0 -85 38l23 48q25 -37 62 -37q38 0 38 36q0 44 -70 44l6 87h42l-3 -47q88 -8 88 -84z" />
    <glyph glyph-name="Lcedilla" unicode="&#xe10f;" horiz-adv-x="457" 
d="M354 -126q0 -42 -28.5 -63.5t-72.5 -21.5q-57 0 -85 38l23 48q25 -37 62 -37q38 0 38 36q0 44 -70 44l5 82h-141v589h78v-521h274v-68h-169l-2 -42q88 -8 88 -84z" />
    <glyph glyph-name="ocedilla" unicode="&#xe110;" horiz-adv-x="502" 
d="M354 -126q0 -42 -28.5 -63.5t-72.5 -21.5q-57 0 -85 38l23 48q25 -37 62 -37q38 0 38 36q0 44 -70 44l5 71q-85 8 -133 72t-48 173q0 116 55 177.5t151 61.5t151 -61.5t55 -177.5q0 -112 -50.5 -176t-138.5 -69l-2 -31q88 -8 88 -84zM251 411q-131 0 -131 -177
q0 -186 131 -186t131 186q0 177 -131 177z" />
    <glyph glyph-name="Mmacron" unicode="&#xe111;" horiz-adv-x="712" 
d="M386 147h-60l-120 227q-16 30 -27 56t-14 37l-3 11h-4q5 -37 5 -108v-370h-78v589h97l149 -297q9 -18 15.5 -34.5t8.5 -23.5l2 -8h4q6 26 26 66l149 297h91v-589h-78v370l5 108h-4q-8 -36 -44 -104zM482 677h-251v59h251v-59z" />
    <glyph glyph-name="mmacron" unicode="&#xe112;" horiz-adv-x="765" 
d="M413 371q16 53 55 77.5t89 24.5q62 0 100 -34.5t38 -102.5v-336h-76v313q0 45 -21 69.5t-61 24.5q-46 0 -80 -35.5t-34 -102.5v-269h-76v313q0 45 -21 69.5t-61 24.5q-46 0 -80 -35.5t-34 -102.5v-269h-76v462h57l9 -89q17 51 56 75.5t88 24.5q111 0 128 -102zM511 564
h-251v61h251v-61z" />
    <glyph glyph-name="Mcedilla" unicode="&#xe113;" horiz-adv-x="712" 
d="M386 147h-60l-120 227q-16 30 -27 56t-14 37l-3 11h-4q5 -37 5 -108v-370h-78v589h97l149 -297q9 -18 15.5 -34.5t8.5 -23.5l2 -8h4q6 26 26 66l149 297h91v-589h-78v370l5 108h-4q-8 -36 -44 -104zM449 -126q0 -42 -28.5 -63.5t-72.5 -21.5q-56 0 -85 38l23 48
q25 -37 62 -37q38 0 38 36q0 44 -70 44l6 87h42l-3 -47q88 -8 88 -84z" />
    <glyph glyph-name="mcedilla" unicode="&#xe114;" horiz-adv-x="765" 
d="M490 -126q0 -42 -28.5 -63.5t-72.5 -21.5q-57 0 -85 38l23 48q25 -37 62 -37q38 0 38 36q0 44 -70 44l5 82h-15v313q0 45 -21 69.5t-61 24.5q-46 0 -80 -35.5t-34 -102.5v-269h-76v462h57l9 -89q17 51 56 75.5t88 24.5q111 0 128 -102q16 53 55 77.5t89 24.5
q62 0 100 -34.5t38 -102.5v-336h-76v313q0 45 -21 69.5t-61 24.5q-46 0 -80 -35.5t-34 -102.5v-269h-19l-2 -42q88 -8 88 -84z" />
    <glyph glyph-name="Ndieresis" unicode="&#xe115;" horiz-adv-x="642" 
d="M168 589l240 -355q16 -24 34 -54.5t28 -49.5l10 -18h4q-5 67 -5 141v336h78v-589h-81l-243 355q-16 24 -34 54.5t-28 48.5l-10 19h-4q6 -67 6 -141v-336h-78v589h83zM172 710q0 22 16 38t38 16t38 -16t16 -38t-16 -38t-38 -16t-38 16t-16 38zM361 709q0 22 16 38t38 16
q23 0 38.5 -15.5t15.5 -38.5q0 -22 -16 -38t-38 -16t-38 16t-16 38z" />
    <glyph glyph-name="ndieresis" unicode="&#xe116;" 
d="M132 462l9 -89q36 100 148 100q63 0 102.5 -35.5t39.5 -106.5v-331h-76v312q0 45 -22.5 70t-64.5 25q-52 0 -84.5 -32t-32.5 -106v-269h-76v462h57zM110 595q0 22 16 38t38 16t38 -15.5t16 -38.5q0 -22 -16 -38t-38 -16t-38 16t-16 38zM299 594q0 22 16 38t38 16
q23 0 38.5 -16t15.5 -38t-16 -38t-38 -16t-38 16t-16 38z" />
    <glyph glyph-name="Nmacron" unicode="&#xe117;" horiz-adv-x="642" 
d="M168 589l240 -355q16 -24 34 -54.5t28 -49.5l10 -18h4q-5 67 -5 141v336h78v-589h-81l-243 355q-16 24 -34 54.5t-28 48.5l-10 19h-4q6 -67 6 -141v-336h-78v589h83zM447 677h-251v59h251v-59z" />
    <glyph glyph-name="nmacron" unicode="&#xe118;" 
d="M132 462l9 -89q36 100 148 100q63 0 102.5 -35.5t39.5 -106.5v-331h-76v312q0 45 -22.5 70t-64.5 25q-52 0 -84.5 -32t-32.5 -106v-269h-76v462h57zM385 564h-251v61h251v-61z" />
    <glyph glyph-name="Ncedilla" unicode="&#xe119;" horiz-adv-x="642" 
d="M168 589l240 -355q16 -24 34 -54.5t28 -49.5l10 -18h4q-5 67 -5 141v336h78v-589h-81l-243 355q-16 24 -34 54.5t-28 48.5l-10 19h-4q6 -67 6 -141v-336h-78v589h83zM414 -126q0 -42 -28.5 -63.5t-72.5 -21.5q-57 0 -85 38l23 48q25 -37 62 -37q38 0 38 36q0 44 -70 44
l6 87h42l-3 -47q88 -8 88 -84z" />
    <glyph glyph-name="ncedilla" unicode="&#xe11a;" 
d="M132 462l9 -89q36 100 148 100q63 0 102.5 -35.5t39.5 -106.5v-331h-76v312q0 45 -22.5 70t-64.5 25q-52 0 -84.5 -32t-32.5 -106v-269h-76v462h57zM352 -126q0 -42 -28.5 -63.5t-72.5 -21.5q-57 0 -85 38l23 48q25 -37 62 -37q38 0 38 36q0 44 -70 44l6 87h42l-3 -47
q88 -8 88 -84z" />
    <glyph glyph-name="Ocommaturnedabove" unicode="&#xe11b;" horiz-adv-x="612" 
d="M306 -12q-120 0 -190.5 80.5t-70.5 225.5q0 146 70.5 226.5t190.5 80.5t190.5 -80.5t70.5 -226.5q0 -145 -70.5 -225.5t-190.5 -80.5zM306 533q-87 0 -133 -63t-46 -176t46 -176t133 -63t133 63t46 176t-46 176t-133 63zM248 725q0 53 28 77t85 24v-34
q-30 -2 -43.5 -11.5t-13.5 -33.5q26 5 41.5 -8t15.5 -36t-14.5 -36t-38.5 -13q-25 0 -42.5 19.5t-17.5 51.5z" />
    <glyph glyph-name="ocommaturnedabove" unicode="&#xe11c;" horiz-adv-x="502" 
d="M251 -12q-95 0 -150.5 64.5t-55.5 181.5q0 116 55 177.5t151 61.5t151 -61.5t55 -177.5q0 -117 -55.5 -181.5t-150.5 -64.5zM251 411q-131 0 -131 -177q0 -186 131 -186t131 186q0 177 -131 177zM197 605q0 53 28 77t85 24v-34q-30 -2 -43.5 -11.5t-13.5 -33.5
q26 5 41.5 -8t15.5 -36t-14.5 -36t-38.5 -13q-25 0 -42.5 19.5t-17.5 51.5z" />
    <glyph glyph-name="uni004F02D900AF" unicode="&#xe11d;" horiz-adv-x="612" 
d="M306 -12q-120 0 -190.5 80.5t-70.5 225.5q0 146 70.5 226.5t190.5 80.5t190.5 -80.5t70.5 -226.5q0 -145 -70.5 -225.5t-190.5 -80.5zM306 533q-87 0 -133 -63t-46 -176t46 -176t133 -63t133 63t46 176t-46 176t-133 63zM252 698q0 23 15.5 39t37.5 16q23 0 39 -16
t16 -39q0 -22 -16 -38t-39 -16q-22 0 -37.5 16t-15.5 38zM432 790h-251v59h251v-59z" />
    <glyph glyph-name="Ocedilla" unicode="&#xe11f;" horiz-adv-x="612" 
d="M399 -126q0 -42 -28.5 -63.5t-72.5 -21.5q-56 0 -85 38l23 48q25 -37 62 -37q38 0 38 36q0 44 -70 44l5 72q-105 11 -165.5 90.5t-60.5 213.5q0 146 70.5 226.5t190.5 80.5t190.5 -80.5t70.5 -226.5q0 -143 -68.5 -223t-185.5 -83l-2 -30q88 -8 88 -84zM306 533
q-87 0 -133 -63t-46 -176t46 -176t133 -63t133 63t46 176t-46 176t-133 63z" />
    <glyph glyph-name="Ounderlineaccent" unicode="&#xe121;" horiz-adv-x="612" 
d="M306 -12q-120 0 -190.5 80.5t-70.5 225.5q0 146 70.5 226.5t190.5 80.5t190.5 -80.5t70.5 -226.5q0 -145 -70.5 -225.5t-190.5 -80.5zM306 533q-87 0 -133 -63t-46 -176t46 -176t133 -63t133 63t46 176t-46 176t-133 63zM336 -203h-60v150h60v-150z" />
    <glyph glyph-name="ounderlineaccent" unicode="&#xe122;" horiz-adv-x="502" 
d="M251 -12q-95 0 -150.5 64.5t-55.5 181.5q0 116 55 177.5t151 61.5t151 -61.5t55 -177.5q0 -117 -55.5 -181.5t-150.5 -64.5zM251 411q-131 0 -131 -177q0 -186 131 -186t131 186q0 177 -131 177zM281 -203h-60v150h60v-150z" />
    <glyph glyph-name="Pmacron" unicode="&#xe123;" horiz-adv-x="488" 
d="M163 524v-235h90q67 0 95 31t28 89q0 56 -32 85.5t-93 29.5h-88zM163 0h-78v589h167q206 0 206 -175q0 -88 -50 -138.5t-148 -50.5h-97v-225zM370 677h-251v59h251v-59z" />
    <glyph glyph-name="pmacron" unicode="&#xe124;" horiz-adv-x="526" 
d="M151 268v-93q0 -64 36 -96.5t83 -32.5q58 0 95.5 48.5t37.5 140.5q0 86 -32.5 130.5t-89.5 44.5q-56 0 -93 -38t-37 -104zM151 61v-264h-76v665h60l9 -89q19 52 62.5 76t91.5 24q86 0 134.5 -60t48.5 -171q0 -108 -53.5 -181t-146.5 -73q-99 0 -130 73zM404 564h-251v61
h251v-61z" />
    <glyph glyph-name="Rdoublegrave" unicode="&#xe125;" horiz-adv-x="539" 
d="M502 0h-85q-17 21 -24 53l-25 107q-13 53 -41 71.5t-79 18.5h-85v-250h-78v589h195q196 0 196 -164q0 -67 -40 -105.5t-98 -40.5v-2q43 -5 67.5 -27.5t36.5 -70.5l30 -118q9 -36 30 -61zM163 524v-210h115q116 0 116 106q0 104 -116 104h-115zM364 655h-58l-105 116h98z
M224 655h-60l-115 116h100z" />
    <glyph glyph-name="rdoublegrave" unicode="&#xe126;" horiz-adv-x="343" 
d="M323 472l-4 -86q-13 3 -37 3q-54 0 -92.5 -41.5t-38.5 -106.5v-241h-76v462h63l9 -124q14 64 59.5 100.5t116.5 33.5zM305 530h-58l-105 143h98zM165 530h-60l-115 143h100z" />
    <glyph glyph-name="Rcedilla" unicode="&#xe127;" horiz-adv-x="539" 
d="M502 0h-85q-17 21 -24 53l-25 107q-13 53 -41 71.5t-79 18.5h-85v-250h-78v589h195q196 0 196 -164q0 -67 -40 -105.5t-98 -40.5v-2q43 -5 67.5 -27.5t36.5 -70.5l30 -118q9 -36 30 -61zM163 524v-210h115q116 0 116 106q0 104 -116 104h-115zM349 -126
q0 -42 -28.5 -63.5t-72.5 -21.5q-56 0 -85 38l23 48q25 -37 62 -37q38 0 38 36q0 44 -70 44l6 87h42l-3 -47q88 -8 88 -84z" />
    <glyph glyph-name="rcedilla" unicode="&#xe128;" horiz-adv-x="343" 
d="M218 -126q0 -42 -28.5 -63.5t-72.5 -21.5q-57 0 -85 38l23 48q25 -37 62 -37q38 0 38 36q0 44 -70 44l5 82h-15v462h63l9 -124q14 64 59.5 100.5t116.5 33.5l-4 -86q-13 3 -37 3q-54 0 -92.5 -41.5t-38.5 -106.5v-241h-19l-2 -42q88 -8 88 -84z" />
    <glyph glyph-name="Tcedilla" unicode="&#xe129;" horiz-adv-x="449" 
d="M330 -126q0 -42 -28.5 -63.5t-72.5 -21.5q-57 0 -85 38l23 48q25 -37 62 -37q38 0 38 36q0 44 -70 44l5 82h-17v521h-175v68h429v-68h-176v-521h-19l-2 -42q88 -8 88 -84z" />
    <glyph glyph-name="tcedilla" unicode="&#xe12a;" horiz-adv-x="321" 
d="M274 -126q0 -42 -28.5 -63.5t-72.5 -21.5q-57 0 -85 38l23 48q25 -37 62 -37q38 0 38 36q0 44 -70 44l5 80q-69 25 -69 114v289h-67v61h67v98l77 10v-108h137v-61h-138v-275q0 -73 62 -73q39 0 76 24l15 -63q-41 -26 -102 -26q-11 0 -16 1l-2 -31q88 -8 88 -84z" />
    <glyph glyph-name="Umacronbelow" unicode="&#xe12b;" horiz-adv-x="573" 
d="M430 589h78v-397q0 -55 -19 -96t-51.5 -63.5t-70.5 -33.5t-81 -11t-81 11t-70.5 33.5t-51 63.5t-18.5 96v397h78v-378q0 -159 143 -159q144 0 144 156v381zM412 -178h-251v59h251v-59z" />
    <glyph glyph-name="umacronbelow" unicode="&#xe12c;" 
d="M361 0l-9 83q-33 -95 -142 -95q-140 0 -140 154v320h76v-313q0 -55 21.5 -80t67.5 -25q43 0 79 37t36 100v281h76v-462h-65zM374 -178h-251v59h251v-59z" />
    <glyph glyph-name="R.alt" unicode="&#xe141;" horiz-adv-x="517" 
d="M325 246l177 -246h-93l-168 237h-78v-237h-78v589h169q204 0 204 -175q0 -67 -35.5 -112t-97.5 -56zM163 524v-226h97q116 0 116 111q0 54 -29 84.5t-87 30.5h-97z" />
    <glyph glyph-name="Racute.alt" unicode="&#xe142;" horiz-adv-x="517" 
d="M325 246l177 -246h-93l-168 237h-78v-237h-78v589h169q204 0 204 -175q0 -67 -35.5 -112t-97.5 -56zM163 524v-226h97q116 0 116 111q0 54 -29 84.5t-87 30.5h-97zM249 655h-69l62 116h104z" />
    <glyph glyph-name="Rcaron.alt" unicode="&#xe143;" horiz-adv-x="517" 
d="M325 246l177 -246h-93l-168 237h-78v-237h-78v589h169q204 0 204 -175q0 -67 -35.5 -112t-97.5 -56zM163 524v-226h97q116 0 116 111q0 54 -29 84.5t-87 30.5h-97zM269 650h-46l-121 124h87l32 -34q8 -9 14 -18t8 -13l2 -4h2q5 14 24 35l32 34h87z" />
    <glyph glyph-name="Rinvertedbreve.alt" unicode="&#xe144;" horiz-adv-x="517" 
d="M325 246l177 -246h-93l-168 237h-78v-237h-78v589h169q204 0 204 -175q0 -67 -35.5 -112t-97.5 -56zM163 524v-226h97q116 0 116 111q0 54 -29 84.5t-87 30.5h-97zM246 783q61 0 96 -34t35 -92h-61q-6 69 -70 69q-63 0 -69 -69h-61q0 58 35 92t95 34z" />
    <glyph glyph-name="Rdoublegrave.alt" unicode="&#xe145;" horiz-adv-x="517" 
d="M325 246l177 -246h-93l-168 237h-78v-237h-78v589h169q204 0 204 -175q0 -67 -35.5 -112t-97.5 -56zM163 524v-226h97q116 0 116 111q0 54 -29 84.5t-87 30.5h-97zM356 655h-58l-105 116h98zM216 655h-60l-115 116h100z" />
    <glyph glyph-name="Rcommaaccent.alt" unicode="&#xe146;" horiz-adv-x="517" 
d="M325 246l177 -246h-93l-168 237h-78v-237h-78v589h169q204 0 204 -175q0 -67 -35.5 -112t-97.5 -56zM163 524v-226h97q116 0 116 111q0 54 -29 84.5t-87 30.5h-97zM325 -143q0 -53 -28 -77t-85 -24v34q30 2 43.5 11.5t13.5 33.5q-26 -5 -41.5 8t-15.5 36t14.5 36t38.5 13
q25 0 42.5 -19.5t17.5 -51.5z" />
    <glyph glyph-name="Rcedilla.alt" unicode="&#xe147;" horiz-adv-x="517" 
d="M325 246l177 -246h-93l-168 237h-78v-237h-78v589h169q204 0 204 -175q0 -67 -35.5 -112t-97.5 -56zM163 524v-226h97q116 0 116 111q0 54 -29 84.5t-87 30.5h-97zM363 -126q0 -42 -28.5 -63.5t-72.5 -21.5q-56 0 -85 38l23 48q25 -37 62 -37q38 0 38 36q0 44 -70 44
l6 87h42l-3 -47q88 -8 88 -84z" />
    <glyph glyph-name="Rdotbelow.alt" unicode="&#xe148;" horiz-adv-x="517" 
d="M325 246l177 -246h-93l-168 237h-78v-237h-78v589h169q204 0 204 -175q0 -67 -35.5 -112t-97.5 -56zM163 524v-226h97q116 0 116 111q0 54 -29 84.5t-87 30.5h-97zM202 -142q0 23 15.5 39t37.5 16q23 0 39 -16t16 -39q0 -22 -16 -38t-39 -16q-22 0 -37.5 16t-15.5 38z
" />
    <glyph glyph-name="Rdotbelowmacron.alt" unicode="&#xe149;" horiz-adv-x="517" 
d="M325 246l177 -246h-93l-168 237h-78v-237h-78v589h169q204 0 204 -175q0 -67 -35.5 -112t-97.5 -56zM163 524v-226h97q116 0 116 111q0 54 -29 84.5t-87 30.5h-97zM210 -142q0 23 15.5 39t37.5 16q23 0 39 -16t16 -39q0 -22 -16 -38t-39 -16q-22 0 -37.5 16t-15.5 38z
M364 677h-251v59h251v-59z" />
    <glyph glyph-name="aogonek.school" unicode="&#xe150;" horiz-adv-x="526" 
d="M375 402l26 60h50v-462q-45 -2 -78.5 -29.5t-33.5 -71.5q0 -58 49 -58q47 0 71 46l29 -35q-32 -63 -112 -63q-51 0 -79 26t-28 72q0 47 32.5 80t80.5 50l-7 63q-37 -92 -148 -92q-75 0 -128.5 62t-53.5 174q0 118 54 183.5t153 65.5q43 0 78 -21.5t45 -49.5zM375 181v109
q0 59 -37.5 91t-84.5 32q-60 0 -96 -45t-36 -143q0 -85 35 -130.5t96 -45.5q46 0 84.5 35t38.5 97z" />
    <glyph glyph-name="a.school" unicode="&#xe151;" horiz-adv-x="526" 
d="M375 181v109q0 59 -37.5 91t-84.5 32q-60 0 -96 -45t-36 -143q0 -85 35 -130.5t96 -45.5q46 0 84.5 35t38.5 97zM375 402l26 60h50v-462h-67l-9 80q-37 -92 -148 -92q-75 0 -128.5 62t-53.5 174q0 118 54 183.5t153 65.5q43 0 78 -21.5t45 -49.5z" />
    <glyph glyph-name="agrave.school" unicode="&#xe152;" horiz-adv-x="526" 
d="M375 181v109q0 59 -37.5 91t-84.5 32q-60 0 -96 -45t-36 -143q0 -85 35 -130.5t96 -45.5q46 0 84.5 35t38.5 97zM375 402l26 60h50v-462h-67l-9 80q-37 -92 -148 -92q-75 0 -128.5 62t-53.5 174q0 118 54 183.5t153 65.5q43 0 78 -21.5t45 -49.5zM286 530h-65l-115 143
h105z" />
    <glyph glyph-name="aacute.school" unicode="&#xe153;" horiz-adv-x="526" 
d="M375 181v109q0 59 -37.5 91t-84.5 32q-60 0 -96 -45t-36 -143q0 -85 35 -130.5t96 -45.5q46 0 84.5 35t38.5 97zM375 402l26 60h50v-462h-67l-9 80q-37 -92 -148 -92q-75 0 -128.5 62t-53.5 174q0 118 54 183.5t153 65.5q43 0 78 -21.5t45 -49.5zM287 530h-65l75 143h105
z" />
    <glyph glyph-name="acircumflex.school" unicode="&#xe154;" horiz-adv-x="526" 
d="M375 181v109q0 59 -37.5 91t-84.5 32q-60 0 -96 -45t-36 -143q0 -85 35 -130.5t96 -45.5q46 0 84.5 35t38.5 97zM375 402l26 60h50v-462h-67l-9 80q-37 -92 -148 -92q-75 0 -128.5 62t-53.5 174q0 118 54 183.5t153 65.5q43 0 78 -21.5t45 -49.5zM238 673h42l122 -143
h-81l-36 44q-8 11 -14 21t-8 15l-2 4h-4q-5 -16 -24 -40l-36 -44h-81z" />
    <glyph glyph-name="adieresis.school" unicode="&#xe155;" horiz-adv-x="526" 
d="M375 181v109q0 59 -37.5 91t-84.5 32q-60 0 -96 -45t-36 -143q0 -85 35 -130.5t96 -45.5q46 0 84.5 35t38.5 97zM375 402l26 60h50v-462h-67l-9 80q-37 -92 -148 -92q-75 0 -128.5 62t-53.5 174q0 118 54 183.5t153 65.5q43 0 78 -21.5t45 -49.5zM114 595q0 22 16 38
t38 16t38 -15.5t16 -38.5q0 -22 -16 -38t-38 -16t-38 16t-16 38zM303 594q0 22 16 38t38 16q23 0 38.5 -16t15.5 -38t-16 -38t-38 -16t-38 16t-16 38z" />
    <glyph glyph-name="atilde.school" unicode="&#xe156;" horiz-adv-x="526" 
d="M375 181v109q0 59 -37.5 91t-84.5 32q-60 0 -96 -45t-36 -143q0 -85 35 -130.5t96 -45.5q46 0 84.5 35t38.5 97zM375 402l26 60h50v-462h-67l-9 80q-37 -92 -148 -92q-75 0 -128.5 62t-53.5 174q0 118 54 183.5t153 65.5q43 0 78 -21.5t45 -49.5zM327 531q-27 0 -71 24
q-4 2 -14 8t-13.5 7.5t-10 4.5t-12 4t-11.5 1q-36 0 -30 -47h-48q-17 46 3.5 79.5t65.5 33.5q36 0 83 -28q36 -22 53 -22q32 0 29 50h51q15 -51 -5 -83t-70 -32z" />
    <glyph glyph-name="aring.school" unicode="&#xe157;" horiz-adv-x="526" 
d="M375 181v109q0 59 -37.5 91t-84.5 32q-60 0 -96 -45t-36 -143q0 -85 35 -130.5t96 -45.5q46 0 84.5 35t38.5 97zM375 402l26 60h50v-462h-67l-9 80q-37 -92 -148 -92q-75 0 -128.5 62t-53.5 174q0 118 54 183.5t153 65.5q43 0 78 -21.5t45 -49.5zM260 524q-46 0 -72.5 27
t-26.5 69q0 39 27.5 66t71.5 27t71.5 -27t27.5 -66q0 -42 -26.5 -69t-72.5 -27zM260 677q-26 0 -41.5 -16.5t-15.5 -42.5q0 -25 15 -40t42 -15t42 15t15 40q0 26 -15.5 42.5t-41.5 16.5z" />
    <glyph glyph-name="acaron.school" unicode="&#xe158;" horiz-adv-x="526" 
d="M375 181v109q0 59 -37.5 91t-84.5 32q-60 0 -96 -45t-36 -143q0 -85 35 -130.5t96 -45.5q46 0 84.5 35t38.5 97zM375 402l26 60h50v-462h-67l-9 80q-37 -92 -148 -92q-75 0 -128.5 62t-53.5 174q0 118 54 183.5t153 65.5q43 0 78 -21.5t45 -49.5zM280 530h-42l-122 143
h81l36 -46q8 -11 14 -21t8 -14l2 -5h4q5 16 24 40l36 46h81z" />
    <glyph glyph-name="amacron.school" unicode="&#xe159;" horiz-adv-x="526" 
d="M375 181v109q0 59 -37.5 91t-84.5 32q-60 0 -96 -45t-36 -143q0 -85 35 -130.5t96 -45.5q46 0 84.5 35t38.5 97zM375 402l26 60h50v-462h-67l-9 80q-37 -92 -148 -92q-75 0 -128.5 62t-53.5 174q0 118 54 183.5t153 65.5q43 0 78 -21.5t45 -49.5zM388 564h-251v61h251
v-61z" />
    <glyph glyph-name="abreve.school" unicode="&#xe15a;" horiz-adv-x="526" 
d="M375 181v109q0 59 -37.5 91t-84.5 32q-60 0 -96 -45t-36 -143q0 -85 35 -130.5t96 -45.5q46 0 84.5 35t38.5 97zM375 402l26 60h50v-462h-67l-9 80q-37 -92 -148 -92q-75 0 -128.5 62t-53.5 174q0 118 54 183.5t153 65.5q43 0 78 -21.5t45 -49.5zM258 528q-61 0 -96 36.5
t-35 99.5h61q3 -39 18 -58.5t52 -19.5t52 19.5t18 58.5h61q0 -63 -35 -99.5t-96 -36.5z" />
    <glyph glyph-name="ainvertedbreve.school" unicode="&#xe15b;" horiz-adv-x="526" 
d="M375 181v109q0 59 -37.5 91t-84.5 32q-60 0 -96 -45t-36 -143q0 -85 35 -130.5t96 -45.5q46 0 84.5 35t38.5 97zM375 402l26 60h50v-462h-67l-9 80q-37 -92 -148 -92q-75 0 -128.5 62t-53.5 174q0 118 54 183.5t153 65.5q43 0 78 -21.5t45 -49.5zM260 668q61 0 96 -36.5
t35 -99.5h-61q-3 39 -18 58.5t-52 19.5t-52 -19.5t-18 -58.5h-61q0 63 35 99.5t96 36.5z" />
    <glyph glyph-name="adoublegrave.school" unicode="&#xe15c;" horiz-adv-x="526" 
d="M375 181v109q0 59 -37.5 91t-84.5 32q-60 0 -96 -45t-36 -143q0 -85 35 -130.5t96 -45.5q46 0 84.5 35t38.5 97zM375 402l26 60h50v-462h-67l-9 80q-37 -92 -148 -92q-75 0 -128.5 62t-53.5 174q0 118 54 183.5t153 65.5q43 0 78 -21.5t45 -49.5zM364 530h-58l-105 143
h98zM224 530h-60l-115 143h100z" />
    <glyph glyph-name="adotabove.school" unicode="&#xe15d;" horiz-adv-x="526" 
d="M375 181v109q0 59 -37.5 91t-84.5 32q-60 0 -96 -45t-36 -143q0 -85 35 -130.5t96 -45.5q46 0 84.5 35t38.5 97zM375 402l26 60h50v-462h-67l-9 80q-37 -92 -148 -92q-75 0 -128.5 62t-53.5 174q0 118 54 183.5t153 65.5q43 0 78 -21.5t45 -49.5zM203 595q0 23 15.5 39
t37.5 16q23 0 39 -16t16 -39q0 -22 -16 -38t-39 -16q-22 0 -37.5 16t-15.5 38z" />
    <glyph glyph-name="aringacute.school" unicode="&#xe15e;" horiz-adv-x="526" 
d="M375 181v109q0 59 -37.5 91t-84.5 32q-60 0 -96 -45t-36 -143q0 -85 35 -130.5t96 -45.5q46 0 84.5 35t38.5 97zM375 402l26 60h50v-462h-67l-9 80q-37 -92 -148 -92q-75 0 -128.5 62t-53.5 174q0 118 54 183.5t153 65.5q43 0 78 -21.5t45 -49.5zM250 503q-46 0 -72.5 27
t-26.5 69q0 39 27.5 66t71.5 27t71.5 -27t27.5 -66q0 -42 -26.5 -69t-72.5 -27zM250 656q-26 0 -41.5 -16.5t-15.5 -42.5q0 -25 15 -40t42 -15t42 15t15 40q0 26 -15.5 42.5t-41.5 16.5zM277 728h-69l62 116h104z" />
    <glyph glyph-name="adieresismacron.school" unicode="&#xe15f;" horiz-adv-x="526" 
d="M375 181v109q0 59 -37.5 91t-84.5 32q-60 0 -96 -45t-36 -143q0 -85 35 -130.5t96 -45.5q46 0 84.5 35t38.5 97zM375 402l26 60h50v-462h-67l-9 80q-37 -92 -148 -92q-75 0 -128.5 62t-53.5 174q0 118 54 183.5t153 65.5q43 0 78 -21.5t45 -49.5zM117 565q0 22 16 38
t38 16q23 0 38.5 -15.5t15.5 -38.5q0 -22 -16 -38t-38 -16t-38 16t-16 38zM306 564q0 22 16 38t38 16t38 -16t16 -38t-16 -38t-38 -16t-38 16t-16 38zM391 663h-251v61h251v-61z" />
    <glyph glyph-name="ytilde.school" unicode="&#xe160;" 
d="M70 462h76v-312q0 -55 21.5 -80.5t67.5 -25.5q43 0 79 37t36 100v281h76v-459q0 -112 -57.5 -163t-149.5 -51q-136 0 -181 123l63 33q29 -95 119 -95q130 0 130 143v78q-29 -83 -140 -83q-140 0 -140 154v320zM316 531q-27 0 -71 24q-4 2 -14 8t-13.5 7.5t-10 4.5t-12 4
t-11.5 1q-36 0 -30 -47h-48q-17 46 3.5 79.5t65.5 33.5q36 0 83 -28q36 -22 53 -22q32 0 29 50h51q15 -51 -5 -83t-70 -32z" />
    <glyph glyph-name="g.school" unicode="&#xe161;" horiz-adv-x="526" 
d="M401 462h50v-449q0 -61 -20 -106.5t-52.5 -70t-68 -36t-72.5 -11.5q-155 0 -202 123l64 33q33 -95 136 -95q63 0 101.5 40t38.5 113v77q-38 -92 -149 -92q-75 0 -128.5 62t-53.5 174q0 115 54.5 182t151.5 67q43 0 78.5 -21.5t45.5 -50.5zM375 181v109q0 59 -37.5 91
t-84.5 32q-60 0 -96 -45t-36 -143q0 -85 35 -130.5t96 -45.5q46 0 84.5 35t38.5 97z" />
    <glyph glyph-name="gacute.school" unicode="&#xe162;" horiz-adv-x="526" 
d="M401 462h50v-449q0 -61 -20 -106.5t-52.5 -70t-68 -36t-72.5 -11.5q-155 0 -202 123l64 33q33 -95 136 -95q63 0 101.5 40t38.5 113v77q-38 -92 -149 -92q-75 0 -128.5 62t-53.5 174q0 115 54.5 182t151.5 67q43 0 78.5 -21.5t45.5 -50.5zM375 181v109q0 59 -37.5 91
t-84.5 32q-60 0 -96 -45t-36 -143q0 -85 35 -130.5t96 -45.5q46 0 84.5 35t38.5 97zM291 530h-65l75 143h105z" />
    <glyph glyph-name="gcircumflex.school" unicode="&#xe163;" horiz-adv-x="526" 
d="M401 462h50v-449q0 -61 -20 -106.5t-52.5 -70t-68 -36t-72.5 -11.5q-155 0 -202 123l64 33q33 -95 136 -95q63 0 101.5 40t38.5 113v77q-38 -92 -149 -92q-75 0 -128.5 62t-53.5 174q0 115 54.5 182t151.5 67q43 0 78.5 -21.5t45.5 -50.5zM375 181v109q0 59 -37.5 91
t-84.5 32q-60 0 -96 -45t-36 -143q0 -85 35 -130.5t96 -45.5q46 0 84.5 35t38.5 97zM242 673h42l122 -143h-81l-36 44q-8 11 -14 21t-8 15l-2 4h-4q-5 -16 -24 -40l-36 -44h-81z" />
    <glyph glyph-name="gtilde.school" unicode="&#xe164;" horiz-adv-x="526" 
d="M401 462h50v-449q0 -61 -20 -106.5t-52.5 -70t-68 -36t-72.5 -11.5q-155 0 -202 123l64 33q33 -95 136 -95q63 0 101.5 40t38.5 113v77q-38 -92 -149 -92q-75 0 -128.5 62t-53.5 174q0 115 54.5 182t151.5 67q43 0 78.5 -21.5t45.5 -50.5zM375 181v109q0 59 -37.5 91
t-84.5 32q-60 0 -96 -45t-36 -143q0 -85 35 -130.5t96 -45.5q46 0 84.5 35t38.5 97zM336 531q-27 0 -71 24q-4 2 -14 8t-13.5 7.5t-10 4.5t-12 4t-11.5 1q-36 0 -30 -47h-48q-17 46 3.5 79.5t65.5 33.5q36 0 83 -28q36 -22 53 -22q32 0 29 50h51q15 -51 -5 -83t-70 -32z" />
    <glyph glyph-name="gcaron.school" unicode="&#xe165;" horiz-adv-x="526" 
d="M401 462h50v-449q0 -61 -20 -106.5t-52.5 -70t-68 -36t-72.5 -11.5q-155 0 -202 123l64 33q33 -95 136 -95q63 0 101.5 40t38.5 113v77q-38 -92 -149 -92q-75 0 -128.5 62t-53.5 174q0 115 54.5 182t151.5 67q43 0 78.5 -21.5t45.5 -50.5zM375 181v109q0 59 -37.5 91
t-84.5 32q-60 0 -96 -45t-36 -143q0 -85 35 -130.5t96 -45.5q46 0 84.5 35t38.5 97zM282 530h-42l-122 143h81l36 -46q8 -11 14 -21t8 -14l2 -5h4q5 16 24 40l36 46h81z" />
    <glyph glyph-name="gbreve.school" unicode="&#xe166;" horiz-adv-x="526" 
d="M401 462h50v-449q0 -61 -20 -106.5t-52.5 -70t-68 -36t-72.5 -11.5q-155 0 -202 123l64 33q33 -95 136 -95q63 0 101.5 40t38.5 113v77q-38 -92 -149 -92q-75 0 -128.5 62t-53.5 174q0 115 54.5 182t151.5 67q43 0 78.5 -21.5t45.5 -50.5zM375 181v109q0 59 -37.5 91
t-84.5 32q-60 0 -96 -45t-36 -143q0 -85 35 -130.5t96 -45.5q46 0 84.5 35t38.5 97zM256 528q-61 0 -96 36.5t-35 99.5h61q3 -39 18 -58.5t52 -19.5t52 19.5t18 58.5h61q0 -63 -35 -99.5t-96 -36.5z" />
    <glyph glyph-name="gdotaccent.school" unicode="&#xe167;" horiz-adv-x="526" 
d="M401 462h50v-449q0 -61 -20 -106.5t-52.5 -70t-68 -36t-72.5 -11.5q-155 0 -202 123l64 33q33 -95 136 -95q63 0 101.5 40t38.5 113v77q-38 -92 -149 -92q-75 0 -128.5 62t-53.5 174q0 115 54.5 182t151.5 67q43 0 78.5 -21.5t45.5 -50.5zM375 181v109q0 59 -37.5 91
t-84.5 32q-60 0 -96 -45t-36 -143q0 -85 35 -130.5t96 -45.5q46 0 84.5 35t38.5 97zM202 594q0 23 15.5 39t37.5 16q23 0 39 -16t16 -39q0 -22 -16 -38t-39 -16q-22 0 -37.5 16t-15.5 38z" />
    <glyph glyph-name="gcommaaccent.school" unicode="&#xe168;" horiz-adv-x="526" 
d="M401 462h50v-449q0 -61 -20 -106.5t-52.5 -70t-68 -36t-72.5 -11.5q-155 0 -202 123l64 33q33 -95 136 -95q63 0 101.5 40t38.5 113v77q-38 -92 -149 -92q-75 0 -128.5 62t-53.5 174q0 115 54.5 182t151.5 67q43 0 78.5 -21.5t45.5 -50.5zM375 181v109q0 59 -37.5 91
t-84.5 32q-60 0 -96 -45t-36 -143q0 -85 35 -130.5t96 -45.5q46 0 84.5 35t38.5 97zM203 612q0 53 28 77t85 24v-34q-30 -2 -43.5 -11.5t-13.5 -33.5q26 5 41.5 -8t15.5 -36t-14.5 -36t-38.5 -13q-25 0 -42.5 19.5t-17.5 51.5z" />
    <glyph glyph-name="gcommaturnedabove.school" unicode="&#xe169;" horiz-adv-x="526" 
d="M401 462h50v-449q0 -61 -20 -106.5t-52.5 -70t-68 -36t-72.5 -11.5q-155 0 -202 123l64 33q33 -95 136 -95q63 0 101.5 40t38.5 113v77q-38 -92 -149 -92q-75 0 -128.5 62t-53.5 174q0 115 54.5 182t151.5 67q43 0 78.5 -21.5t45.5 -50.5zM375 181v109q0 59 -37.5 91
t-84.5 32q-60 0 -96 -45t-36 -143q0 -85 35 -130.5t96 -45.5q46 0 84.5 35t38.5 97zM203 612q0 53 28 77t85 24v-34q-30 -2 -43.5 -11.5t-13.5 -33.5q26 5 41.5 -8t15.5 -36t-14.5 -36t-38.5 -13q-25 0 -42.5 19.5t-17.5 51.5z" />
    <glyph glyph-name="gstroke.school" unicode="&#xe16a;" horiz-adv-x="526" 
d="M212 -93v35h155q9 27 9 61v77q-38 -92 -149 -92q-75 0 -128.5 62t-53.5 174q0 115 54.5 182t151.5 67q43 0 78.5 -21.5t45.5 -50.5l26 61h50v-449q0 -37 -8 -71h81v-35h-93q-26 -61 -80 -89.5t-113 -28.5q-155 0 -202 123l64 33q33 -95 136 -95q77 0 114 57h-138z
M375 183v107q0 59 -37.5 91t-84.5 32q-50 0 -91 -49t-41 -139q0 -85 35 -130.5t96 -45.5q46 0 84.5 35t38.5 99z" />
    <glyph glyph-name="y.school" unicode="&#xe16b;" 
d="M70 462h76v-312q0 -55 21.5 -80.5t67.5 -25.5q43 0 79 37t36 100v281h76v-459q0 -112 -57.5 -163t-149.5 -51q-136 0 -181 123l63 33q29 -95 119 -95q130 0 130 143v78q-29 -83 -140 -83q-140 0 -140 154v320z" />
    <glyph glyph-name="ygrave.school" unicode="&#xe16c;" 
d="M70 462h76v-312q0 -55 21.5 -80.5t67.5 -25.5q43 0 79 37t36 100v281h76v-459q0 -112 -57.5 -163t-149.5 -51q-136 0 -181 123l63 33q29 -95 119 -95q130 0 130 143v78q-29 -83 -140 -83q-140 0 -140 154v320zM288 530h-65l-115 143h105z" />
    <glyph glyph-name="yacute.school" unicode="&#xe16d;" 
d="M70 462h76v-312q0 -55 21.5 -80.5t67.5 -25.5q43 0 79 37t36 100v281h76v-459q0 -112 -57.5 -163t-149.5 -51q-136 0 -181 123l63 33q29 -95 119 -95q130 0 130 143v78q-29 -83 -140 -83q-140 0 -140 154v320zM279 530h-65l75 143h105z" />
    <glyph glyph-name="ycircumflex.school" unicode="&#xe16e;" 
d="M70 462h76v-312q0 -55 21.5 -80.5t67.5 -25.5q43 0 79 37t36 100v281h76v-459q0 -112 -57.5 -163t-149.5 -51q-136 0 -181 123l63 33q29 -95 119 -95q130 0 130 143v78q-29 -83 -140 -83q-140 0 -140 154v320zM220 673h42l122 -143h-81l-36 44q-8 11 -14 21t-8 15l-2 4
h-4q-5 -16 -24 -40l-36 -44h-81z" />
    <glyph glyph-name="ydieresis.school" unicode="&#xe16f;" 
d="M70 462h76v-312q0 -55 21.5 -80.5t67.5 -25.5q43 0 79 37t36 100v281h76v-459q0 -112 -57.5 -163t-149.5 -51q-136 0 -181 123l63 33q29 -95 119 -95q130 0 130 143v78q-29 -83 -140 -83q-140 0 -140 154v320zM95 595q0 22 16 38t38 16q23 0 38.5 -15.5t15.5 -38.5
q0 -22 -16 -38t-38 -16t-38 16t-16 38zM284 594q0 22 16 38t38 16t38 -16t16 -38t-16 -38t-38 -16t-38 16t-16 38z" />
    <glyph glyph-name="ymacron.school" unicode="&#xe171;" 
d="M70 462h76v-312q0 -55 21.5 -80.5t67.5 -25.5q43 0 79 37t36 100v281h76v-459q0 -112 -57.5 -163t-149.5 -51q-136 0 -181 123l63 33q29 -95 119 -95q130 0 130 143v78q-29 -83 -140 -83q-140 0 -140 154v320zM377 564h-251v61h251v-61z" />
    <glyph glyph-name="cordinal" unicode="&#xe181;" horiz-adv-x="334" 
d="M247 376l57 -13q-14 -84 -121 -84q-62 0 -100 42t-38 117t39 119t103 44q50 0 80.5 -25t31.5 -70l-59 -11q-8 57 -55 57q-37 0 -56 -31t-19 -81q0 -49 20 -81t58 -32q25 0 38.5 10t20.5 39z" />
    <glyph glyph-name="ordfeminine.school" unicode="&#xe182;" horiz-adv-x="375" 
d="M260 406v69q0 40 -22 58.5t-54 18.5q-35 0 -60 -28t-25 -88q0 -53 22.5 -80.5t60.5 -27.5q31 0 54.5 19.5t23.5 58.5zM259 553l10 40h56v-306h-50l-12 52q-33 -60 -103 -60q-51 0 -88 40.5t-37 112.5q0 79 37.5 124t105.5 45q31 0 53.5 -14t27.5 -34z" />
    </font>
</defs>
</svg>
